<?xml version="1.0" standalone="no"?>
<!DOCTYPE svg PUBLIC "-//W3C//DTD SVG 1.1//EN" "http://www.w3.org/Graphics/SVG/1.1/DTD/svg11.dtd" >
<svg xmlns="http://www.w3.org/2000/svg">
<metadata></metadata>
<defs>
<font id="kalpurushregular" horiz-adv-x="960" >
<font-face units-per-em="2048" ascent="1638" descent="-410" />
<missing-glyph horiz-adv-x="745" />
<glyph unicode="&#xd;" horiz-adv-x="0" />
<glyph unicode=" "  horiz-adv-x="745" />
<glyph unicode="&#x09;" horiz-adv-x="745" />
<glyph unicode="&#xa0;" horiz-adv-x="745" />
<glyph unicode="!" horiz-adv-x="557" d="M154 72q0 68 41 116t98 48q98 0 98 -113q0 -70 -39 -117t-98 -47q-100 0 -100 113zM176 1264q39 25 80 45t76 37l43 -27l-60 -930q-18 -14 -23 -22.5t-30 -16.5l-29 21z" />
<glyph unicode="&#x22;" horiz-adv-x="870" d="M160 1425q12 6 32.5 15.5t43 17.5t43 14.5t30.5 8.5l43 -23l-43 -624q-16 -8 -44.5 -14.5t-51.5 -6.5zM518 1425q10 6 30.5 15.5t44 17.5t44 14.5t31.5 8.5l43 -23l-43 -624q-16 -8 -45 -14.5t-52 -6.5z" />
<glyph unicode="#" d="M86 500q4 20 12 44.5t19 45.5h735l20 -27q-4 -20 -12 -45.5t-14 -42.5h-737zM164 147l313 1104q23 16 44.5 23.5t43.5 17.5l31 -22l-317 -1100q-16 -14 -40 -23.5t-51 -19.5zM193 870q4 23 13 46.5t17 44.5h733l25 -25q-4 -23 -13.5 -48.5t-17.5 -41.5h-733zM463 147 l313 1104q23 16 45.5 23.5t44.5 17.5l29 -22l-315 -1100q-18 -14 -42 -23.5t-51 -19.5z" />
<glyph unicode="$" d="M88 195.5q0 37.5 3 76.5t11 68l43 -4q55 -119 145.5 -172t198.5 -53q45 0 87 15t76 43t54.5 67.5t20.5 87.5q0 82 -46 132t-116.5 83.5t-151.5 60.5t-152 64.5t-117 95t-46 151.5q0 47 20.5 100.5t69 98.5t127 74.5t197.5 29.5q96 0 177 -24.5t122 -65.5q6 -6 -1 -25.5 t-21.5 -41t-32 -42t-29.5 -32.5l-39 8q-57 66 -117.5 95.5t-119.5 29.5q-63 0 -106.5 -14.5t-70 -37t-38 -50t-11.5 -56.5q0 -66 47 -106.5t118 -71t154 -59.5t153.5 -72t117.5 -107.5t47 -164.5q0 -68 -25.5 -136.5t-81 -124t-140.5 -91t-203 -35.5q-70 0 -143.5 24.5 t-166.5 81.5q-6 4 -10 33t-4 66.5zM432 -152v1508q14 8 20.5 12t10.5 6t11 4t22 6l26 -22v-1505q-18 -16 -28.5 -20.5t-34.5 -10.5z" />
<glyph unicode="%" horiz-adv-x="1413" d="M76 897q0 70 24.5 131.5t64.5 107.5t93 72.5t111 26.5q59 0 108 -26.5t85 -72.5t55.5 -107.5t19.5 -131.5t-23.5 -131t-64.5 -107.5t-94.5 -74t-112.5 -27.5t-107.5 27.5t-84 74t-55 107.5t-19.5 131zM199 0l856 1188q29 16 65.5 28.5t67.5 20.5l29 -33l-859 -1188 q-10 -6 -27.5 -13t-37 -14t-38.5 -13.5t-32 -10.5zM221 920q0 -145 41 -213t107 -68q49 0 86 60.5t37 177.5q0 143 -45.5 209.5t-104.5 66.5q-45 0 -83 -57.5t-38 -175.5zM778 309q0 70 24.5 130.5t64.5 106.5t93.5 72.5t110.5 26.5q59 0 108.5 -26.5t84 -71.5t54 -106.5 t19.5 -131.5t-23.5 -131t-64.5 -107t-94 -74t-111 -28q-59 0 -107 28t-84 74t-55.5 107.5t-19.5 130.5zM924 332q0 -145 41 -213t106 -68q49 0 86 60.5t37 177.5q0 141 -45 208.5t-105 67.5q-45 0 -82.5 -57t-37.5 -176z" />
<glyph unicode="&#x26;" horiz-adv-x="1366" d="M80 352q0 135 112.5 274.5t323.5 258.5q63 35 105.5 71.5t66 73.5t32.5 73t9 68q0 70 -35 121t-106 51q-37 0 -63.5 -18t-44 -49t-27 -69t-9.5 -77q0 -80 33 -172t87 -187t124 -189.5t144.5 -178.5t148.5 -155.5t135 -120.5q39 -33 82 -43t102 4l9 -43 q-86 -39 -145.5 -57.5t-82.5 -18.5q-25 0 -90 50.5t-150 135.5t-177.5 196.5t-169 233.5t-127 247.5t-50.5 240.5q0 80 27 149.5t72 120t103.5 79t121.5 28.5t107.5 -20.5t71 -54.5t37.5 -78t11 -93q0 -104 -65.5 -196.5t-184.5 -165.5q-109 -68 -181 -128.5t-115 -116.5 t-61.5 -111.5t-18.5 -112.5q0 -70 23.5 -124t63.5 -91t92 -55.5t107 -18.5q106 0 191.5 42t145 104.5t91 135t31.5 136.5q0 43 -14.5 79.5t-37 64.5t-51 43.5t-57.5 15.5l-22 28q10 12 31.5 27.5t42.5 23.5h444l23 -36q-25 -31 -49.5 -51.5t-49.5 -37.5q-37 16 -87 27.5 t-85 13.5q23 -35 28 -66.5t5 -90.5q0 -86 -47 -186.5t-130 -186.5t-194.5 -143.5t-238.5 -57.5q-92 0 -169 24.5t-132.5 73t-86 120t-30.5 165.5z" />
<glyph unicode="'" horiz-adv-x="512" d="M160 1425q12 6 32.5 15.5t43 17.5t43 14.5t30.5 8.5l43 -23l-43 -624q-16 -8 -44.5 -14.5t-51.5 -6.5z" />
<glyph unicode="(" horiz-adv-x="649" d="M121 623q0 164 32.5 317.5t92 281.5t144.5 226t188 151l32 -45q-66 -55 -124 -142t-101 -202.5t-68.5 -257t-25.5 -301.5q0 -145 21.5 -284.5t61.5 -259t99 -217t137 -160.5l-32 -45q-113 51 -199 145t-143.5 217t-86 269.5t-28.5 306.5z" />
<glyph unicode=")" horiz-adv-x="649" d="M41 -270q63 55 121.5 143t102.5 204t69.5 257t25.5 301q0 145 -21.5 283.5t-61 259t-100 218t-136.5 158.5l31 45q113 -51 198.5 -144t143 -216t87 -269t29.5 -306q0 -164 -32.5 -317.5t-93 -283t-145.5 -227.5t-187 -151z" />
<glyph unicode="*" horiz-adv-x="915" d="M70 993l495 213q8 -4 10.5 -2t3.5 4t2 2t7 -10l-422 -317q-23 14 -51.5 32.5t-42.5 34.5zM94 1262q2 25 3 59.5t9 54.5l35 23l434 -322q0 -10 2.5 -10h5.5t3 -1t-6 -11zM328 1067l422 317q23 -14 50 -32.5t44 -34.5l2 -41l-496 -215q-8 4 -10 2t-3 -4t-2 -2t-7 10z M330 1203q0 1 6 11l485 -208q-2 -25 -3 -59t-9 -56l-37 -23l-430 324q0 8 -3 9t-6 1t-3 1zM385 727l64 537q8 4 7 7t-2 5t0 3t13 1l61 -524q-23 -12 -52.5 -27.5t-51.5 -19.5zM387 1513q23 10 53.5 26.5t53.5 21.5l36 -21l-63 -536q-8 -4 -7 -7.5t3 -5.5t1 -3t-13 -1z" />
<glyph unicode="+" horiz-adv-x="839" d="M61 530q10 43 31 88h662l24 -24q-4 -20 -13 -46t-17 -42h-662zM362 227v664q18 6 43 15t48 14l24 -23v-661q-20 -10 -43.5 -18.5t-46.5 -12.5z" />
<glyph unicode="," horiz-adv-x="468" d="M88 139q8 12 37 27.5t64.5 30t68.5 23.5t51 9q47 -23 64.5 -62.5t17.5 -96.5q0 -39 -15.5 -88.5t-45 -99.5t-71.5 -99t-93 -88l-45 35q55 66 78.5 125t23.5 145q0 45 -26.5 70.5t-92.5 21.5z" />
<glyph unicode="-" horiz-adv-x="690" d="M61 479q4 23 12.5 46.5t18.5 43.5h512l25 -24q-6 -23 -14.5 -48.5t-16.5 -41.5h-512z" />
<glyph unicode="." horiz-adv-x="468" d="M131 72q0 68 41 116t98 48q99 0 99 -113q0 -70 -39 -117t-99 -47q-53 0 -76.5 29.5t-23.5 83.5z" />
<glyph unicode="/" d="M49 -309l701 1859q29 18 61.5 29.5t60.5 19.5l37 -20l-698 -1864q-20 -12 -60 -27.5t-65 -23.5z" />
<glyph unicode="0" d="M76 602q0 129 30.5 244t87 202t134.5 137t172 50t166.5 -50t121 -136t73 -201t24.5 -246q0 -129 -31 -243.5t-86 -201.5t-134 -137.5t-173 -50.5q-96 0 -168 50.5t-120 137.5t-72.5 201.5t-24.5 243.5zM240 645q0 -276 74.5 -417.5t185.5 -141.5q104 0 162.5 112.5 t58.5 366.5q0 137 -21.5 240.5t-57.5 173.5t-83 105.5t-98 35.5q-102 0 -161.5 -112.5t-59.5 -362.5z" />
<glyph unicode="1" d="M139 1075q41 12 98.5 32.5t117 45.5t112.5 49.5t86 42.5l37 -35v-1067q0 -10 11 -21t39 -23.5t76 -25t124 -20.5v-53h-670v53q78 8 130 19.5t83 24t44 24.5t13 22v797q0 41 -3 62.5t-15 35.5q-12 12 -71.5 12.5t-190.5 -26.5z" />
<glyph unicode="2" d="M98 74q178 207 290 344t173.5 230t84 155.5t22.5 120.5q0 92 -46.5 154.5t-154.5 62.5q-41 0 -75 -19.5t-58.5 -49.5t-38.5 -66.5t-14 -71.5q-35 -18 -58.5 -31.5t-70.5 -17.5l-27 30q0 51 35 107.5t93 104t131 78t151 30.5q61 0 113 -16.5t90 -51t60.5 -88t22.5 -127.5 q0 -68 -28.5 -138.5t-95 -163.5t-172 -221t-259.5 -308h418q35 0 54.5 26.5t29.5 61.5q12 39 18 90l50 -12l-15 -287h-694z" />
<glyph unicode="3" d="M68 119l34 67q45 -35 82 -56t71 -34.5t67.5 -18.5t70.5 -5q123 0 198 73.5t75 202.5q0 76 -24 128t-60.5 85t-81.5 47.5t-90 14.5h-20.5t-11.5 -1t-13.5 -2.5t-22.5 -3.5l-14 60q92 25 147 58.5t85 68.5t39 70.5t9 66.5q0 35 -10 71t-32.5 64.5t-57.5 47t-82 18.5 q-80 0 -124 -50.5t-32 -117.5q-35 -16 -65.5 -25.5t-73.5 -13.5l-27 31q0 43 31 90t83 87t121 66.5t144 26.5q74 0 128.5 -24.5t88 -63.5t50 -88t16.5 -101q0 -76 -56.5 -146.5t-154.5 -113.5q57 -6 106.5 -33.5t86 -70.5t57 -97.5t20.5 -115.5q0 -84 -26.5 -159t-79.5 -131 t-132 -89t-181 -33q-78 0 -162 32t-176 118z" />
<glyph unicode="4" d="M55 383l496 791q41 18 74.5 36.5t62.5 34.5l37 -35v-749h123l26 -31q-23 -33 -40 -48t-39 -32h-70v-246q0 -16 27.5 -29.5t111.5 -31.5v-43h-489v43q66 10 106.5 19.5t64 18.5t32 17t8.5 17v235h-498zM213 461h373v579z" />
<glyph unicode="5" d="M78 119l35 67q106 -74 176.5 -94t128.5 -20q66 0 114 24.5t80.5 65.5t48 94t15.5 111q0 137 -65.5 220t-207.5 83q-43 0 -104 -19.5t-115 -60.5l-47 33q8 55 21.5 133t26 159.5t21.5 158.5t13 130h436q29 0 50.5 2t37.5 6q18 4 33 11l29 -29q-23 -33 -55.5 -67.5 t-55.5 -51.5h-387q-2 -29 -7 -75t-11 -93t-13.5 -89t-11.5 -64q41 12 94.5 19t104.5 7q90 0 159.5 -30.5t116.5 -81t72 -117.5t25 -141q0 -86 -27 -166t-77 -141.5t-123.5 -97.5t-168.5 -36q-92 0 -184 35t-178 115z" />
<glyph unicode="6" d="M111 473q0 141 41 270t123.5 233.5t210.5 176.5t302 96l19 -59q-137 -31 -237.5 -98.5t-167 -156.5t-99.5 -192.5t-33 -205.5q0 -238 75 -349.5t200 -111.5q53 0 89 25.5t57.5 64.5t30.5 87t9 95q0 94 -22.5 154.5t-56.5 95.5t-74.5 48t-77.5 13q-59 0 -131 -37.5 t-131 -129.5l-13 96q39 53 83 88t86 56.5t80 29.5t67 8q162 0 251 -96t89 -262q0 -70 -23.5 -148t-72 -143.5t-118 -108.5t-161.5 -43q-82 0 -153.5 37t-126 102.5t-85 158.5t-30.5 206z" />
<glyph unicode="7" d="M104 948q2 23 7.5 57.5t11.5 71.5t12 71t12 56h705l33 -37q-70 -162 -139.5 -327.5t-130 -316t-108.5 -275.5t-75 -205q-68 -47 -162 -74l-41 33q86 154 156 293t128 270t111.5 257t108.5 253h-454q-14 0 -28.5 -1t-30 -13t-33 -43t-37.5 -88z" />
<glyph unicode="8" d="M94 285q0 113 75 206t200 160l71 -37q-98 -72 -142 -139t-44 -160q0 -104 65.5 -174.5t180.5 -70.5q55 0 94 21.5t64.5 55t37 76.5t11.5 86q0 90 -42 145.5t-103.5 93.5t-135.5 66.5t-135.5 65.5t-103.5 91t-42 144q0 70 28 128.5t76 101.5t112.5 66.5t140.5 23.5 q152 0 232.5 -75t80.5 -191q0 -45 -17.5 -86t-49 -78t-74.5 -72t-94 -67l-70 43q86 57 122 114.5t36 114.5q0 104 -59.5 153.5t-157.5 49.5q-45 0 -78 -17.5t-54.5 -44t-33 -61.5t-11.5 -68q0 -63 44 -104t110 -74t141.5 -64.5t141 -76.5t109.5 -111t44 -168 q0 -78 -32.5 -147.5t-89 -121.5t-131 -83t-160.5 -31t-152 27t-112 70t-69.5 100t-23.5 119z" />
<glyph unicode="9" d="M100 795q0 76 31 154.5t84 142t128 103.5t163 40q70 0 135.5 -28.5t116.5 -90t81.5 -157t30.5 -228.5q0 -152 -41 -283t-124.5 -231t-211.5 -167.5t-303 -92.5l-18 59q147 37 249.5 99.5t166 146.5t92.5 186.5t29 221.5q0 133 -22.5 221t-58.5 141t-79 75.5t-84 22.5 q-104 0 -160.5 -77.5t-56.5 -196.5q0 -92 22.5 -150.5t57 -92t75.5 -46t78 -12.5q86 0 155 56.5t107 142.5l13 -105q-25 -45 -61 -82t-79 -64.5t-89 -43t-89 -15.5q-80 0 -142.5 27t-106.5 74t-66.5 111.5t-22.5 138.5z" />
<glyph unicode=":" horiz-adv-x="468" d="M131 72q0 68 41 116t98 48q99 0 99 -113q0 -70 -39 -117t-99 -47q-53 0 -76.5 29.5t-23.5 83.5zM131 797q0 68 41 116t98 48q99 0 99 -113q0 -70 -39 -117t-99 -47q-53 0 -76.5 29.5t-23.5 83.5z" />
<glyph unicode=";" horiz-adv-x="468" d="M88 139q8 12 37 27.5t64.5 30t68.5 23.5t51 9q47 -23 64.5 -62.5t17.5 -96.5q0 -39 -15.5 -88.5t-45 -99.5t-71.5 -99t-93 -88l-45 35q55 66 78.5 125t23.5 145q0 45 -26.5 70.5t-92.5 21.5zM131 797q0 68 41 116t98 48q99 0 99 -113q0 -70 -39 -117t-99 -47 q-53 0 -76.5 29.5t-23.5 83.5z" />
<glyph unicode="&#x3c;" horiz-adv-x="899" d="M61 530q4 20 12.5 49t18.5 50l721 270l25 -25q-4 -23 -13.5 -52t-15.5 -48l-723 -268zM61 530q4 20 12.5 49t18.5 50l729 -271l17 -36q-23 -20 -38.5 -34t-45.5 -32l-668 250z" />
<glyph unicode="=" horiz-adv-x="899" d="M61 381q10 43 31 88h721l25 -25q-4 -23 -13.5 -47t-15.5 -43h-723zM61 680q4 20 12.5 45t18.5 43h721l25 -25q-4 -20 -13.5 -45.5t-15.5 -42.5h-723z" />
<glyph unicode="&#x3e;" horiz-adv-x="899" d="M61 281q6 20 14.5 50.5t16.5 47.5l723 270l23 -24q-4 -23 -12.5 -51.5t-18.5 -49.5l-721 -268zM61 834q23 18 44.5 33.5t39.5 31.5l670 -250l23 -24q-4 -23 -12.5 -51.5t-18.5 -49.5l-729 271z" />
<glyph unicode="?" horiz-adv-x="886" d="M80 993v17q0 70 35 130t93 104t134 68.5t160 24.5q147 0 226 -87t79 -228q0 -76 -23.5 -125t-59.5 -85t-78 -65.5t-80 -63.5t-65.5 -81t-31.5 -117l-6 -96q-18 -14 -23.5 -23.5t-31.5 -17.5l-25 21l-8 116q-2 57 16.5 102.5t47 84.5t64.5 73.5t66.5 70.5t51 75t20.5 86 q0 123 -56.5 193.5t-160.5 70.5q-37 0 -69.5 -16.5t-57.5 -44t-39 -63.5t-14 -75q0 -14 4 -28.5t8 -28.5q-33 -16 -67.5 -25.5t-79.5 -13.5l-27 31q-2 8 -2 16zM301 72q0 68 41 116t98 48q99 0 99 -113q0 -70 -39 -117t-99 -47q-53 0 -76.5 29.5t-23.5 83.5z" />
<glyph unicode="@" horiz-adv-x="1652" d="M70 465q0 170 67.5 326.5t183 277.5t271.5 192.5t332 71.5q150 0 271.5 -50t207.5 -149.5t133 -245.5t47 -339q0 -129 -43 -236.5t-106.5 -183.5t-138 -118t-138.5 -42q-49 0 -86 44t-51 149q-41 -57 -73 -94t-61.5 -58.5t-61 -31t-70.5 -9.5q-51 0 -103.5 33t-95.5 94.5 t-69.5 149.5t-26.5 198q0 86 30.5 177.5t87 167t135.5 124t177 48.5q23 0 42 -3.5t37.5 -13.5t39 -28.5t47.5 -47.5q55 33 108 93l31 -31q-8 -29 -16 -62q-6 -29 -10.5 -66.5t-4.5 -78.5v-438q0 -90 31 -133t78 -43q25 0 58.5 31.5t63 86t50 128t20.5 157.5q0 168 -43 299 t-119.5 220t-183 136t-233.5 47q-154 0 -277 -57t-209 -152.5t-133 -220.5t-47 -260q0 -182 56.5 -326.5t150.5 -244.5t218 -154.5t259 -54.5q84 0 165 17.5t149.5 44t122 57.5t83.5 55l27 -55q-37 -37 -94.5 -79t-133 -78t-168.5 -58.5t-200 -22.5q-172 0 -316.5 59.5 t-248 169t-161.5 264t-58 347.5zM610 475q0 -86 20.5 -154.5t52.5 -116.5t70 -75t72 -27q18 0 37 6.5t39.5 22.5t48 45t64.5 74v481q-29 55 -62.5 88t-93.5 33q-111 0 -179.5 -94t-68.5 -283z" />
<glyph unicode="A" horiz-adv-x="1218" d="M0 0v43q68 12 107.5 25.5t50.5 42.5l372 1126q23 25 57 45.5t60 34.5l420 -1206q10 -29 38 -44.5t93 -23.5v-43h-422v43q130 7 130 53q0 7 -3 15l-115 333h-407l-111 -333q-10 -31 27 -44.5t119 -23.5v-43h-416zM410 535h348l-176 514z" />
<glyph unicode="B" horiz-adv-x="1126" d="M41 1231q39 10 90 21.5t108.5 19.5t116 13t113.5 5q203 0 319.5 -71.5t116.5 -198.5q0 -109 -51 -185.5t-139 -111.5q63 -12 118.5 -45t95.5 -81t63.5 -109.5t23.5 -131.5q0 -86 -34 -154.5t-93.5 -116.5t-144.5 -73.5t-185 -25.5q-45 0 -117.5 1t-144.5 5q-82 4 -174 8 h-74v43q68 14 107 30.5t39 30.5v1086q-39 -4 -75 -10t-71 -13zM354 104q0 -8 11 -16q35 -10 84 -14t88 -4q145 0 230 69.5t85 182.5q0 55 -19.5 113.5t-59.5 105.5t-103.5 77.5t-149.5 30.5q-49 0 -89 -4t-77 -10v-531zM354 725h35q113 0 183.5 22.5t110.5 57.5t53.5 79 t13.5 87q0 49 -16.5 92t-55.5 74.5t-103.5 50t-160.5 18.5h-28.5t-31.5 -2v-479z" />
<glyph unicode="C" horiz-adv-x="1097" d="M70 586q0 160 48 290t131 222t193.5 142t233.5 50q109 0 189.5 -29.5t133.5 -70.5q6 -4 -3 -19.5t-24.5 -35t-32.5 -38t-30 -30.5l-35 6q-51 47 -120.5 77t-161.5 30q-51 0 -114.5 -29t-120 -94.5t-94.5 -172t-38 -261.5q0 -133 39 -232.5t99.5 -166t134 -100.5 t145.5 -34q53 0 140 37t198 129q10 -4 20.5 -21.5t16.5 -23.5q-129 -137 -235.5 -189.5t-211.5 -52.5q-92 0 -182 42t-160.5 121t-114.5 193.5t-44 260.5z" />
<glyph unicode="D" horiz-adv-x="1214" d="M41 1231q43 12 101.5 23.5t122 18.5t129 12t124.5 5q139 0 251 -42t190.5 -120.5t121.5 -192.5t43 -259q0 -188 -55 -317.5t-139 -209t-183.5 -114.5t-187.5 -35h-477l272 150q0 -35 38 -50.5t145 -15.5q70 0 143.5 34t133.5 102.5t99 172t39 244.5q0 266 -129 417.5 t-370 151.5q-113 0 -215.5 -12t-188.5 -27zM49 0v43q68 14 107 30.5t39 30.5v1135h159v-1085q0 -39 37 -58.5t109 -34.5v-61h-451z" />
<glyph unicode="E" horiz-adv-x="1015" d="M49 0v43q68 14 107 30.5t39 30.5v1051q0 12 -37 29.5t-109 32.5v43h283h168v-43q-68 -14 -107 -20.5t-39 -18.5v-1024q0 -14 7.5 -26.5t29 -21t62.5 -12.5t106 -4h129q45 0 78 5t58.5 22.5t45 51.5t41.5 93l43 -18q-8 -86 -20 -150.5t-21 -93.5h-864zM289 655l22 80h449 l26 -28q-16 -29 -42.5 -60t-49.5 -47q-31 29 -72.5 42t-125.5 13h-207zM303 1169l29 91h524l33 -25q-4 -51 -16.5 -118.5t-24.5 -106.5h-45q-4 92 -24.5 125.5t-57.5 33.5h-418z" />
<glyph unicode="F" horiz-adv-x="978" d="M49 0v43q68 14 107 30.5t39 30.5v1051q0 12 -37 29.5t-109 32.5v43h451v-43q-68 -14 -107 -20.5t-39 -18.5v-1074q0 -12 39 -27.5t137 -33.5v-43h-481zM258 655l25 80h446l29 -28q-18 -29 -45 -60t-49 -47q-29 29 -71 42t-126 13h-209zM303 1169l29 91h534l31 -25 q-2 -51 -14.5 -118.5t-24.5 -106.5h-47q-4 92 -23.5 125.5t-58.5 33.5h-426z" />
<glyph unicode="G" horiz-adv-x="1193" d="M70 582q0 166 53 298t143 223t212 139t259 48q33 0 73 -7t81 -19.5t79.5 -31.5t71.5 -44q6 -6 -3 -20.5t-25.5 -32t-36 -35t-31.5 -29.5l-33 6q-66 63 -141.5 83t-173.5 20q-37 0 -100.5 -27t-125 -89.5t-105.5 -166.5t-44 -260q0 -139 38 -241.5t97.5 -170t135 -101.5 t151.5 -34q102 0 180 27.5t131 77.5q6 -4 18.5 -9.5t27 -11.5t24.5 -11t14 -9q-74 -61 -132 -97.5t-107 -55.5t-93 -25.5t-90 -6.5q-100 0 -198 38t-176 114t-126 191.5t-48 269.5zM684 567v43h461v-43q-57 -14 -81 -36.5t-24 -45.5v-325q-43 -20 -75 -37q-29 -14 -51 -23 q-13 -6 -18 -6t-5 4v387q0 20 -43 41t-164 41z" />
<glyph unicode="H" horiz-adv-x="1339" d="M49 0v43q68 14 107 30.5t39 30.5v1051q0 12 -37 29.5t-109 32.5v43h451v-43q-68 -14 -107 -31t-39 -31v-1051q0 -12 37 -29.5t109 -31.5v-43h-451zM328 614v91h657v-91h-657zM819 0v43q68 14 107 30.5t39 30.5v1051q0 12 -37 29.5t-109 32.5v43h451v-43q-68 -14 -107 -31 t-39 -31v-1051q0 -12 37 -29.5t109 -31.5v-43h-451z" />
<glyph unicode="I" horiz-adv-x="610" d="M70 0v43q68 14 106.5 30.5t38.5 30.5v1051q0 12 -37 29.5t-108 32.5v43h450v-43q-68 -14 -106.5 -31t-38.5 -31v-1051q0 -12 37 -29.5t108 -31.5v-43h-450z" />
<glyph unicode="J" horiz-adv-x="624" d="M-190 -299q0 8 13 22.5t31.5 30t38 28.5t33.5 17q55 -37 87 -46t71 -9q27 0 55.5 16.5t53 60.5t41 119.5t16.5 192.5v1022q0 6 -8.5 13.5t-30 15.5t-59 16t-97.5 17v43h500v-43q-68 -14 -106.5 -31t-38.5 -31v-950q0 -119 -16.5 -199t-44 -134t-63.5 -91t-75 -70 q-27 -20 -59.5 -37.5t-65.5 -30t-62.5 -18.5t-48.5 -6q-31 0 -60.5 9.5t-53 22.5t-37.5 26.5t-14 23.5z" />
<glyph unicode="K" horiz-adv-x="1183" d="M49 0v43q68 14 107 30.5t39 30.5v1051q0 12 -37 29.5t-109 32.5v43h451v-43q-68 -14 -107 -31t-39 -31v-1051q0 -12 37 -29.5t109 -31.5v-43h-451zM356 643l408 485q32 36 32 55q0 9 -6 13q-22 14 -100 21v43h420v-43q-66 -8 -102.5 -17.5t-67.5 -44.5l-434 -483 l479 -545q35 -41 82 -47q24 -3 48.5 -3t51.5 3l7 -43q-59 -18 -119 -34.5t-107 -16.5q-29 0 -51.5 9t-42.5 34z" />
<glyph unicode="L" horiz-adv-x="974" d="M49 0v43q68 14 107 30.5t39 30.5v1051q0 12 -37 29.5t-109 32.5v43h451v-43q-68 -14 -107 -31t-39 -31v-991q0 -35 39 -54.5t148 -19.5h143q45 0 77 5t56.5 22.5t43 51.5t40.5 93l43 -18q-8 -86 -20.5 -150.5t-20.5 -93.5h-854z" />
<glyph unicode="M" horiz-adv-x="1650" d="M59 0v43q70 14 108 30.5t38 30.5l10 1092l113 25l-11 -1117q0 -12 37 -29.5t109 -31.5v-43h-404zM70 1217v43h286q20 0 29.5 -15.5t34.5 -68.5l403 -912q6 -16 11 -36q6 -18 7 -48v-10q-1 -28 -5 -64q-6 -44 -17 -106h-45l-457 1061q-18 45 -48.5 74.5t-65.5 48t-71 26 t-62 7.5zM797 178.5q0 28.5 5 48t11 35.5l387 914q27 59 36 71.5t28 12.5h286v-43q-35 0 -77.5 -13.5t-84.5 -36t-77 -55.5t-51 -72l-437 -1040h-4q-12 63 -17 106.5t-5 72zM1116 0v43q68 14 112 30.5t44 30.5l-10 1053l153 57l10 -1110q0 -12 37 -29.5t109 -31.5v-43h-455z " />
<glyph unicode="N" horiz-adv-x="1329" d="M49 0v43q74 10 110 28.5t36 32.5v1092l120 25v-1117q0 -12 34 -31.5t112 -29.5v-43h-412zM49 1217v43h213q14 0 24.5 -2.5t19.5 -10.5t21.5 -23.5t30.5 -41.5l660 -910q10 -16 28.5 -40.5t38.5 -49.5q23 -29 50 -61v-152q-49 6 -78 20.5t-41 30.5l-778 1080 q-41 57 -88.5 82.5t-100.5 34.5zM870 1217v43h410v-43q-72 -10 -108.5 -29t-36.5 -33v-1122l-119 39v1083q0 12 -33 31.5t-113 30.5z" />
<glyph unicode="O" horiz-adv-x="1228" d="M70 612q0 135 44 258t119.5 216.5t179 148.5t220.5 55q123 0 218 -54t158.5 -144.5t96.5 -206t33 -238.5q0 -135 -45 -258t-123 -216t-180.5 -148.5t-215.5 -55.5q-121 0 -215 53.5t-158.5 142.5t-98 204.5t-33.5 242.5zM225 641q0 -113 31 -213t82 -175t119.5 -119 t146.5 -44q82 0 151.5 35t121 102.5t79 168t27.5 233.5q0 104 -27.5 202.5t-77 175t-119 123t-155.5 46.5q-90 0 -159.5 -38t-119 -107.5t-75 -168t-25.5 -221.5z" />
<glyph unicode="P" horiz-adv-x="1071" d="M41 1231q98 27 222 43t247 16q215 0 343 -91t128 -263q0 -104 -42 -180t-103.5 -125t-133 -72.5t-129.5 -23.5q-94 0 -161 30l-23 76q41 -18 80 -24.5t74 -6.5q45 0 96 18.5t92 53.5t68.5 88t27.5 125q0 82 -29.5 141.5t-79.5 97t-119 55t-146 17.5h-49.5t-49.5 -2v-1100 q0 -12 36 -28.5t140 -32.5v-43h-481v43q68 14 107 30.5t39 30.5v1086q-37 -4 -74 -10t-72 -13z" />
<glyph unicode="Q" horiz-adv-x="1228" d="M70 612q0 135 44 258t119.5 216.5t179 148.5t220.5 55q123 0 218 -54t158.5 -144.5t96.5 -206t33 -238.5q0 -135 -45 -258t-123 -216t-180.5 -148.5t-215.5 -55.5q-111 0 -203.5 51.5t-159.5 138.5t-104.5 203.5t-37.5 249.5zM225 641q0 -113 31 -213t82 -175t119.5 -119 t146.5 -44q82 0 151.5 35t121 102.5t79 168t27.5 233.5q0 104 -27.5 202.5t-77 175t-119 123t-155.5 46.5q-90 0 -159.5 -38t-119 -107.5t-75 -168t-25.5 -221.5zM500 20q39 10 73 19q29 6 57 10q15 2 25.5 2t18.5 -2q57 -16 115.5 -50t113.5 -69.5t106.5 -62.5t98.5 -27 q25 0 56.5 16.5t90.5 61.5l27 -35q-47 -88 -98 -138t-82 -50q-78 0 -153 46t-149.5 103.5t-149.5 109.5t-150 66z" />
<glyph unicode="R" horiz-adv-x="1148" d="M41 1231q94 23 194.5 41t233.5 18q240 0 358.5 -87t118.5 -216q0 -154 -92 -247t-238 -126l332 -475q31 -43 72 -54q27 -7 64 -7q20 0 44 2l11 -43q-66 -23 -125.5 -37t-98.5 -14q-29 0 -56.5 16t-41.5 39l-340 557h-16q-25 0 -51.5 2t-55.5 8v-504q0 -12 37 -29.5 t109 -31.5v-43h-451v43q68 14 107 30.5t39 30.5v1084q-35 -4 -72 -9t-74 -12zM354 690q27 -4 47.5 -5t42.5 -1q166 0 257.5 69.5t91.5 202.5q0 111 -87.5 180.5t-273.5 69.5q-20 0 -38.5 -1t-39.5 -1v-514z" />
<glyph unicode="S" horiz-adv-x="974" d="M117 173q0 40 3 82t11 69l41 -5q47 -119 134 -174t190 -55q45 0 91 18.5t83 50t59.5 74.5t22.5 91q0 82 -46.5 134t-116 91t-150.5 72.5t-150.5 78.5t-115.5 107.5t-46 159.5q0 47 21.5 103t68.5 105.5t123 82t186 32.5q45 0 90.5 -7t85 -19.5t71.5 -28.5t50 -37 q6 -6 0 -23.5t-19 -38t-29.5 -41t-29.5 -30.5l-36 6q-55 66 -120 90.5t-122 24.5q-55 0 -95 -16.5t-66.5 -41t-39 -55.5t-12.5 -59q0 -63 47 -107.5t116.5 -82.5t151.5 -75.5t152 -87t117 -118t47 -166.5q0 -68 -27 -139.5t-82 -131t-139 -98.5t-197 -39q-66 0 -152.5 27 t-156.5 72q-6 4 -10 34.5t-4 70.5z" />
<glyph unicode="T" horiz-adv-x="1128" d="M10 1014q4 59 13.5 125.5t19.5 120.5h627l28 -91h-526q-16 0 -27.5 -5t-25 -23.5t-28.5 -53t-38 -92.5zM307 0v43q92 18 128 37.5t36 34.5v1063q0 12 -37 18t-108 21v43h448v-43q-68 -14 -105.5 -20.5t-37.5 -18.5v-1063q0 -12 35.5 -33t128.5 -39v-43h-488zM518 1169 l29 91h506l30 -25q-2 -51 -10 -111.5t-20 -124.5h-45q-18 86 -32.5 128t-60.5 42h-397z" />
<glyph unicode="U" horiz-adv-x="1339" d="M49 1217v43h451v-43q-68 -14 -107 -31t-39 -31v-661q0 -193 89 -301.5t262 -108.5q72 0 127 35t92 91t56 128t19 145v672q0 12 -36.5 29.5t-108.5 32.5v43h422v-43q-68 -14 -107 -31t-39 -31v-631q0 -264 -123.5 -409.5t-340.5 -145.5q-102 0 -189.5 29t-150 87 t-97 147.5t-34.5 211.5v711q0 12 -37 29.5t-109 32.5z" />
<glyph unicode="V" horiz-adv-x="1331" d="M20 1217v43h435v-43q-130 -7 -130 -51q0 -7 3 -15l352 -948l336 948q10 29 -25 42t-117 24v43h416v-43q-68 -12 -106.5 -24.5t-48.5 -41.5l-383 -1092q-8 -23 -27.5 -38t-42.5 -26t-45.5 -17.5t-34.5 -8.5l-440 1182q-18 51 -142 66z" />
<glyph unicode="W" horiz-adv-x="1740" d="M20 1217v43h429v-43q-49 -4 -77 -12.5t-42.5 -17.5t-16.5 -19.5t0 -20.5l199 -897l324 1010h55l354 -1010l187 905q4 23 -41 37t-113 25v43h424v-43q-61 -14 -103.5 -25.5t-48.5 -36.5l-229 -1096q-6 -23 -23.5 -38t-39 -26t-43 -17.5t-33.5 -8.5l-326 975l-287 -885 q-6 -23 -26.5 -39t-43 -26t-46 -16.5t-35.5 -8.5l-260 1178q-6 25 -36 41t-102 29z" />
<glyph unicode="X" horiz-adv-x="1259" d="M31 0v43q66 4 111.5 23.5t70.5 60.5l383 625l35 -174l-279 -451q-14 -21 -14 -36q0 -17 18 -25q33 -16 125 -23v-43h-450zM41 1217v43h451v-43q-86 -7 -111 -23q-12 -7 -12 -21q0 -16 16 -40l686 -1006q29 -43 63.5 -59.5t94.5 -24.5v-43h-451v43q88 11 110 27 q10 7 11 19q0 15 -16 38l-686 1006q-16 23 -29.5 37t-31 23t-40 14t-55.5 10zM578 682l280 451q13 21 13 36q0 18 -19 26q-35 15 -125 22v43h453v-43q-72 -8 -114 -24.5t-69 -59.5l-370 -598z" />
<glyph unicode="Y" horiz-adv-x="1216" d="M0 1249q59 8 118.5 14.5t100.5 6.5q47 0 78 -39q37 -49 80 -113.5t86 -138.5t84 -150.5t76 -148.5l268 471q16 27 -8.5 41t-102.5 25v43h396v-43q-68 -12 -105 -25.5t-51 -40.5l-365 -662h-110q-35 82 -84 177.5t-101.5 185.5t-103.5 169t-88 130l-20.5 20.5t-29 17.5 t-46 12t-68.5 5zM360 0v43q92 18 128 37.5t36 34.5v522h160v-522q0 -12 36 -33t130 -39v-43h-490z" />
<glyph unicode="Z" horiz-adv-x="1071" d="M59 45l711 1114h-459q-33 0 -71.5 -46t-61.5 -150l-57 12l29 301q27 -6 49 -9t43.5 -5t45 -2h52.5h616l25 -43l-705 -1117h523q20 0 37.5 9.5t33 33t32 63.5t34.5 101l55 -14q-4 -66 -7 -150t-5 -143h-891z" />
<glyph unicode="[" horiz-adv-x="630" d="M139 -336v1935h416l33 -24q-4 -27 -12.5 -51.5t-14.5 -34.5h-280v-1708h274l35 -31q-4 -18 -12.5 -42.5t-16.5 -43.5h-422z" />
<glyph unicode="\" d="M55 1579l37 20q29 -8 56.5 -19t56.5 -30l700 -1859l-35 -27q-25 8 -60.5 23.5t-53.5 27.5z" />
<glyph unicode="]" horiz-adv-x="630" d="M41 1513q4 23 12 46.5t15 39.5h421v-1935h-413l-33 31q4 23 11 47.5t14 38.5h282v1708h-274z" />
<glyph unicode="^" horiz-adv-x="1007" d="M100 592l322 870q25 23 64.5 48.5t68.5 39.5l352 -915q-25 -23 -48 -38t-58 -32l-37 27l-283 723l-250 -680q-23 -20 -55.5 -40t-52.5 -30z" />
<glyph unicode="_" d="M61 -219q10 43 31 88h782l23 -25q-4 -23 -12 -47t-17 -43h-782z" />
<glyph unicode="`" horiz-adv-x="653" d="M31 1423l20 41q10 2 29.5 6.5t42 8.5t43 7t33.5 3l239 -412q-23 -18 -55 -30z" />
<glyph unicode="a" horiz-adv-x="940" d="M80 186q0 119 85 210t253 126l315 64l10 -74l-239 -47q-137 -25 -198.5 -89.5t-61.5 -146.5q0 -41 12 -65.5t28.5 -38.5t36 -19.5t31.5 -5.5q127 0 281 136l8 -74q-94 -102 -187.5 -147.5t-160.5 -45.5q-37 0 -75 12.5t-68.5 38t-50 66.5t-19.5 100zM109 707 q23 49 69.5 95t107 82t128 56.5t131.5 20.5q111 0 169 -57.5t58 -162.5v-563q0 -78 41 -78q14 0 35.5 5.5t62.5 21.5l15 -45q-86 -59 -140.5 -86t-83.5 -27q-35 0 -57 52.5t-22 142.5v538q0 68 -35 114q-34 44 -125 44h-8q-33 0 -64 -10t-53.5 -27.5t-35.5 -42t-9 -55.5 q0 -10 -21.5 -21.5t-50 -20.5t-57.5 -14t-41 -1z" />
<glyph unicode="b" horiz-adv-x="1040" d="M10 1430v40q66 16 125.5 33t118.5 47l9 -9l11 -11q8 -8 17 -14v-789q100 121 194.5 177.5t151.5 56.5q68 0 125 -32t99 -92.5t64.5 -147t22.5 -197.5q0 -86 -33.5 -179.5t-95 -169t-150.5 -125t-200 -49.5q-39 0 -129 34t-201 93v1200q0 45 -5 71t-18.5 38t-39 16 t-66.5 9zM291 203q39 -31 81 -50.5t78.5 -30.5t67.5 -16.5t49 -5.5q61 0 107.5 27t77 70t47 98.5t16.5 112.5q0 100 -20.5 178t-55 131t-79 80.5t-93.5 27.5q-18 0 -48 -10t-66.5 -34.5t-78.5 -66.5t-83 -104v-407z" />
<glyph unicode="c" horiz-adv-x="894" d="M80 444q0 106 39 200.5t108.5 165.5t161.5 111t201 40q33 0 67.5 -6.5t66.5 -16.5t58.5 -24.5t42.5 -32.5q2 -12 -3 -34t-14 -46.5t-20.5 -47t-19.5 -36.5l-37 10q-8 18 -26.5 39.5t-46 40t-67.5 31t-91 12.5q-53 0 -101.5 -23.5t-86.5 -70.5t-60.5 -117t-22.5 -164 q0 -86 26 -154.5t69 -116.5t98 -75t115 -27q29 0 52 2t52 14.5t66.5 39t93.5 73.5l39 -41q-66 -78 -115 -121.5t-91 -65t-82 -28t-87 -6.5q-74 0 -142.5 33t-123 94.5t-87 149.5t-32.5 198z" />
<glyph unicode="d" horiz-adv-x="1064" d="M80 444q0 86 35 177.5t96 167t148 124t192 48.5q59 0 120.5 -21.5t139.5 -99.5q0 -31 -3 -49.5t-10 -32t-18.5 -22.5t-27.5 -19q-31 63 -93.5 98t-138.5 35q-129 0 -210 -93t-81 -282q0 -86 25 -154.5t62.5 -116.5t83.5 -75t87 -27q39 0 77 17.5t75 46.5t73 62.5t70 68.5 q12 -6 22.5 -17.5t14.5 -19.5q-51 -66 -96 -120t-93 -92t-99.5 -58.5t-114.5 -20.5q-55 0 -114.5 33t-109 94.5t-81 149.5t-31.5 198zM600 1446v39q82 10 146.5 29.5t117.5 35.5l31 -30v-1266q0 -72 6 -102.5t17 -45.5q10 -10 35.5 -6t84.5 27l13 -43q-92 -61 -142.5 -88 t-79.5 -27q-41 0 -62.5 67.5t-21.5 235.5v1002q0 55 -3 88t-16 50.5t-43 23.5t-83 10z" />
<glyph unicode="e" horiz-adv-x="946" d="M80 434q0 135 58.5 255t162.5 192q45 31 107.5 55.5t115.5 24.5q98 0 164 -39t106 -99.5t56 -131.5t16 -134q-18 -20 -48 -36.5t-62 -31.5h-574l2 91h480q23 0 30.5 7t7.5 29q0 27 -8 68t-30.5 79t-62.5 65.5t-105 27.5q-59 0 -108.5 -27.5t-84.5 -77t-54.5 -117 t-19.5 -147.5q0 -76 20.5 -145.5t58.5 -122.5t93.5 -85t124.5 -32q31 0 60.5 3.5t63.5 17.5t76 39.5t97 73.5q12 -6 22.5 -19.5t14.5 -21.5q-68 -74 -118 -118t-95 -67.5t-88 -32t-94 -8.5q-78 0 -147.5 33t-122 93.5t-84 146.5t-31.5 192z" />
<glyph unicode="f" horiz-adv-x="636" d="M45 864l78 66h78v31q0 119 16 198.5t43 136t62.5 93t76.5 69.5q27 20 58.5 37.5t63.5 30t60.5 18.5t47.5 6q31 0 63.5 -12t60 -27.5t46 -32t18.5 -24.5t-14.5 -24.5t-34.5 -33t-41.5 -31.5t-36.5 -22q-47 41 -95 62.5t-75 21.5t-56.5 -18t-55 -64.5t-42 -126 t-16.5 -202.5v-86h258l29 -29q-18 -29 -49 -59.5t-49 -40.5q-23 12 -66 23.5t-123 11.5v-734q0 -12 46 -24t163 -35v-43h-500v43q70 12 106 29.5t36 29.5v734h-135z" />
<glyph unicode="g" horiz-adv-x="999" d="M31 -229q0 27 11 57.5t43 65t91.5 75.5t157.5 92q20 -2 37 -6q14 -4 26.5 -9t16.5 -15q-80 -43 -127 -76t-70.5 -59.5t-30 -48t-6.5 -37.5q0 -41 28 -79t75 -65.5t109.5 -44t129.5 -16.5q135 0 216 66.5t81 170.5q0 27 -13 51.5t-47 44t-92.5 34t-148.5 24.5 q-98 12 -162.5 28.5t-103.5 37t-54.5 44t-15.5 48.5q0 8 6.5 23.5t25.5 38t54 52t94 66.5l142 16q-90 -59 -124 -102t-34 -51q0 -12 10.5 -23.5t39 -23t78.5 -21.5t128 -18q109 -12 180.5 -37t113.5 -56.5t58.5 -67.5t16.5 -71q0 -82 -46 -151.5t-118 -119.5t-162 -79 t-178 -29q-70 0 -146.5 15.5t-141 47t-106.5 83t-42 125.5zM100 602q0 74 33 139.5t87 113.5t123 77t142 29q74 0 136.5 -26t108.5 -70t72.5 -102.5t26.5 -121.5q0 -78 -34.5 -141.5t-90 -108.5t-126 -70.5t-144.5 -25.5q-72 0 -133 21.5t-106 61.5t-70 97t-25 127zM240 659 q0 -53 16 -101t50 -83t85 -55.5t123 -20.5q29 0 60.5 13.5t57 38t42 62.5t16.5 87q0 53 -17.5 100.5t-52 82t-86 55t-118.5 20.5q-25 0 -55.5 -12t-57.5 -38t-45 -62.5t-18 -86.5zM635 891q133 8 210 30.5t124 39.5l20 -31q-12 -29 -23.5 -52.5t-33.5 -48.5 q-53 -10 -110 -14q-37 -3 -87 -3q-25 0 -53 1z" />
<glyph unicode="h" horiz-adv-x="1130" d="M55 0v43q66 16 103 30.5t37 30.5v1194q0 41 -4.5 64.5t-17.5 37t-41 18.5t-77 12v40q84 14 139.5 33t112.5 47l37 -34v-832q43 63 96.5 114.5t106.5 87.5t103 55.5t89 19.5q43 0 83 -13.5t71 -40t49.5 -68.5t18.5 -98v-637q0 -14 30.5 -27.5t108.5 -33.5v-43h-430v43 q141 37 141 61v529q0 61 -8 99t-23.5 59.5t-40 29.5t-57.5 8q-70 0 -160 -69.5t-178 -210.5v-445q0 -16 38 -31.5t103 -29.5v-43h-430z" />
<glyph unicode="i" horiz-adv-x="555" d="M70 0v43q68 14 104.5 30.5t36.5 30.5v566q0 51 -2 82.5t-15.5 49t-42 26t-81.5 12.5v41q63 10 133.5 32.5t122.5 47.5h34v-857q0 -12 34 -29.5t106 -31.5v-43h-430zM190 1221q0 57 34 96t81 39q84 0 84 -94q0 -57 -32.5 -97.5t-82.5 -40.5q-84 0 -84 97z" />
<glyph unicode="j" horiz-adv-x="530" d="M-240 -430q0 8 14.5 23.5t35 33t42 32.5t35.5 22q33 -29 67 -37.5t71 -8.5q29 0 57.5 18.5t51 64.5t36.5 125t14 200v627q0 51 -2 81.5t-15 49t-42 26t-80 13.5v41q41 6 74 15t62.5 18.5t57 21.5t60.5 25h37v-863q0 -115 -14.5 -194.5t-41 -137t-61.5 -95.5t-74 -70 q-53 -43 -116.5 -72t-102.5 -29q-31 0 -60.5 8.5t-53 18.5t-38 22.5t-14.5 20.5zM166 1221q0 57 33.5 96t81.5 39q84 0 84 -94q0 -57 -33 -97.5t-82 -40.5q-84 0 -84 97z" />
<glyph unicode="k" horiz-adv-x="1024" d="M55 0v43q66 16 103 29.5t37 31.5v1192q0 45 -6.5 71t-21.5 38t-42 16t-70 9v40q70 14 136.5 33t115.5 47l37 -34v-1412q0 -8 3 -14t15.5 -12t34 -14.5t58.5 -20.5v-43h-400zM344 526l309 273q33 29 40 46t-2 26.5t-31.5 12.5t-49.5 3v43h379v-43q-45 -4 -82 -15.5 t-78 -46.5l-407 -329zM346 526l105 76l413 -491q30 -33 62 -43q24 -8 61 -8q14 0 31 1l6 -43q-59 -14 -110.5 -21t-73.5 -7q-41 0 -66.5 12t-48.5 41z" />
<glyph unicode="l" horiz-adv-x="555" d="M59 0v43q86 16 119 30.5t33 30.5v1192q0 45 -6 70t-22.5 37t-43 17t-69.5 10v40q72 14 132 31t122 49l36 -34v-1412q0 -16 34 -31.5t116 -29.5v-43h-451z" />
<glyph unicode="m" horiz-adv-x="1644" d="M55 0v43q66 16 103 30.5t37 30.5v607q0 39 -4.5 62.5t-17.5 36.5t-41 18.5t-77 11.5v41q76 10 131.5 31.5t108.5 48.5l35 -35l12 -230q90 133 182 199t164 66q47 0 88 -12.5t71 -40t46 -72.5t16 -113v-18q86 125 178.5 190.5t165.5 65.5q96 0 159 -53.5t63 -166.5v-637 q0 -14 31.5 -27.5t109.5 -33.5v-43h-430v43q139 35 139 61v529q0 123 -26.5 165t-86.5 42q-66 0 -145.5 -71t-157.5 -196v-469q0 -14 32 -27.5t110 -33.5v-43h-430v43q139 35 139 61v529q0 123 -25.5 165t-87.5 42q-68 0 -142.5 -70t-160.5 -197v-469q0 -16 38 -31.5 t103 -29.5v-43h-430z" />
<glyph unicode="n" horiz-adv-x="1130" d="M55 0v43q66 16 103 30.5t37 30.5v607q0 39 -3.5 62.5t-16.5 35.5t-41 18.5t-79 12.5v41q68 10 126.5 30.5t113.5 49.5l35 -35l12 -250q43 68 96.5 120t106.5 89t104 56.5t90 19.5q43 0 83 -13.5t71 -40t49.5 -68.5t18.5 -98v-637q0 -14 30.5 -27.5t108.5 -33.5v-43h-430 v43q141 37 141 61v529q0 61 -7 99t-22.5 59.5t-40 29.5t-59.5 8q-61 0 -150.5 -62t-187.5 -218v-445q0 -16 38 -31.5t103 -29.5v-43h-430z" />
<glyph unicode="o" horiz-adv-x="1030" d="M80 444q0 98 36 191.5t97 166t144 116t178 43.5q94 0 170.5 -36t131 -99.5t84 -151t29.5 -189.5q0 -100 -36.5 -193t-99 -165t-144.5 -115t-174 -43q-94 0 -171 36t-131.5 99.5t-84 150.5t-29.5 189zM233 473q0 -80 28 -150.5t71 -125t94 -86t98 -31.5q141 0 207 101.5 t66 273.5q0 80 -27 151.5t-67.5 125.5t-93 86t-103.5 32q-76 0 -128 -28.5t-84 -80t-46.5 -120t-14.5 -148.5z" />
<glyph unicode="p" horiz-adv-x="1085" d="M55 -436q66 16 103 30.5t37 30.5v1086q0 37 -4.5 61.5t-18.5 38.5t-42 20.5t-75 8.5v41q70 14 125.5 32.5t114.5 47.5l35 -35l10 -199q98 121 195.5 177.5t154.5 56.5q68 0 126 -32t99 -92.5t65 -147t24 -197.5q0 -86 -32 -179.5t-85 -169t-122 -125t-142 -49.5 q-59 0 -133 34t-146 95v-473q0 -16 38 -31.5t132 -29.5v-43h-459v43zM344 213q92 -68 157.5 -90.5t119.5 -22.5q109 0 179 83t70 243q0 88 -20.5 163t-55 129t-78.5 85t-93 31q-18 0 -47 -10.5t-66 -37t-79 -69.5t-87 -107v-397z" />
<glyph unicode="q" horiz-adv-x="1054" d="M80 444q0 88 27.5 162t68.5 131.5t87 97t81 60.5q57 31 112.5 48.5t94.5 17.5q59 0 120.5 -21.5t139.5 -99.5q0 -31 -3 -49.5t-10 -32t-18.5 -22.5t-27.5 -19q-31 63 -93.5 99t-138.5 36q-55 0 -108.5 -23.5t-93 -70.5t-64.5 -118t-25 -165q0 -86 25 -154.5t62.5 -116.5 t83.5 -75t87 -27q39 0 77 17.5t75 46.5t73 62.5t70 68.5q12 -6 22.5 -17.5t14.5 -19.5q-51 -66 -96 -120t-93 -92t-99.5 -58.5t-114.5 -20.5q-55 0 -114.5 33t-109 94.5t-81 149.5t-31.5 198zM575 -436q94 14 132 29.5t38 31.5v1223q16 6 37 19.5t42.5 29.5t40 33.5 t30.5 30.5l31 -31q-8 -27 -17 -62q-6 -29 -10 -67.5t-4 -83.5v-1092q0 -16 30.5 -31.5t108.5 -29.5v-43h-459v43z" />
<glyph unicode="r" horiz-adv-x="811" d="M55 0v43q66 16 103 30.5t37 30.5v582q0 66 -6.5 91.5t-16.5 35.5q-14 14 -37.5 18.5t-79.5 8.5v41q66 16 128.5 33.5t111.5 46.5l35 -35l12 -228q55 111 127 187t158 76q33 0 69.5 -8.5t73.5 -28.5q8 -6 8 -36t-8 -68t-19.5 -78t-23.5 -66h-43q-12 82 -43 112.5t-68 30.5 q-45 0 -112.5 -76.5t-116.5 -246.5v-392q0 -16 38 -31.5t132 -29.5v-43h-459z" />
<glyph unicode="s" horiz-adv-x="790" d="M95 143q1 39 6 78t12 62l43 -11q2 -43 22.5 -79.5t53 -64.5t77.5 -44t97 -16q72 0 117.5 44t45.5 115q0 39 -21.5 70t-56 56.5t-79.5 48t-90 47.5q-41 20 -80 44.5t-70 54.5t-49.5 67.5t-18.5 84.5q0 61 25 110.5t67 82.5t95 50.5t110 17.5q31 0 69 -5.5t74 -15.5 t67.5 -24.5t52.5 -32.5q6 -6 0.5 -26.5t-14.5 -45.5t-19 -47.5t-17 -30.5l-39 8q-47 72 -99 100.5t-101 28.5q-66 0 -104 -39.5t-38 -80.5q0 -33 19.5 -58.5t50.5 -47t71 -42t81 -43.5q43 -23 87 -47.5t79.5 -57t57 -74.5t21.5 -97q0 -106 -43 -169t-100 -94.5t-114.5 -41 t-86.5 -9.5q-47 0 -115.5 18.5t-134.5 55.5q-6 1 -9 31q-2 22 -2 50v19z" />
<glyph unicode="t" horiz-adv-x="704" d="M20 864l78 66h72v246l119 104l30 -25v-325h328l29 -29q-18 -29 -49 -59.5t-52 -40.5q-25 12 -73.5 23.5t-128.5 11.5h-54v-529q0 -59 6.5 -99t18.5 -63.5t32.5 -33t51.5 -9.5q35 0 88 12.5t131 53.5l29 -51q-98 -72 -188.5 -110t-143.5 -38q-70 0 -122 56.5t-52 195.5 v615h-129z" />
<glyph unicode="u" horiz-adv-x="1085" d="M41 854v41q72 8 129 23.5t123 42.5l26 -39v-588q0 -139 41 -191.5t113 -52.5q66 0 134.5 39t158.5 133v449q0 45 -5 72.5t-19.5 42t-43 20.5t-73.5 8v41q72 8 138 27.5t122 38.5l30 -39v-668q0 -61 4.5 -100t18.5 -50q12 -8 41 -4t80 27l10 -45q-74 -47 -134.5 -80 t-84.5 -33q-35 0 -57.5 46t-26.5 151q-63 -61 -114.5 -100t-95.5 -60.5t-80 -29t-68 -7.5q-47 0 -89.5 13.5t-76 48.5t-53 94t-19.5 154v432q0 47 -3 73.5t-15.5 41t-39 19.5t-71.5 9z" />
<glyph unicode="v" horiz-adv-x="1009" d="M20 887v43h386v-43q-78 -10 -101.5 -22.5t-11.5 -45.5l246 -641l231 641q10 31 -10.5 44.5t-93.5 23.5v43h323v-43q-59 -14 -79.5 -26.5t-30.5 -41.5l-283 -760q-8 -23 -25.5 -38t-38 -26t-40 -17.5t-31.5 -8.5l-330 850q-10 29 -35.5 43.5t-75.5 24.5z" />
<glyph unicode="w" horiz-adv-x="1445" d="M20 887v43h386v-43q-49 -4 -76 -11.5t-39 -15.5t-13.5 -17t3.5 -18l188 -635l246 740h55l21 -105l-267 -766q-8 -23 -24.5 -39t-37 -26t-40 -16.5t-31.5 -8.5l-262 856q-10 39 -109 62zM713 696l8 234h63l260 -740l173 635q6 23 -21 37.5t-96 24.5v43h325v-43 q-61 -14 -77.5 -26.5t-22.5 -35.5l-221 -766q-6 -23 -23.5 -38t-38 -26t-42 -17.5t-33.5 -8.5z" />
<glyph unicode="x" horiz-adv-x="1030" d="M20 0v43q80 12 115 37.5t58 56.5l256 357l51 -80l-199 -283q-18 -27 -14 -43t20.5 -25.5t42 -13.5t49.5 -6v-43h-379zM31 887v43h420v-43q-61 -5 -87 -23q-11 -7 -11 -21q0 -17 20 -44l483 -662q23 -29 58.5 -56.5t101.5 -37.5v-43h-402v43q25 2 47.5 6t35 13.5 t12.5 25.5t-21 43l-487 666q-12 18 -25.5 33.5t-32 26.5t-45 18.5t-67.5 11.5zM500 528l188 271q21 29 21 47q1 12 -9 18q-24 16 -86 23v43h381v-43q-82 -6 -126 -29.5t-70 -60.5l-246 -346z" />
<glyph unicode="y" horiz-adv-x="1009" d="M-47 -446q0 6 12 24.5t29.5 40t38 40.5t37.5 30q47 -29 95 -31h12q41 0 73 12q18 6 41.5 27.5t48.5 54.5t48.5 73t41.5 83l29 69l-328 842q-10 29 -35.5 43.5t-75.5 24.5v43h386v-43q-78 -10 -101.5 -22.5t-11.5 -45.5l246 -637l231 637q10 31 -15.5 44.5t-99.5 23.5v43 h334v-43q-59 -14 -79.5 -26.5t-30.5 -41.5l-334 -901q-41 -111 -93.5 -189.5t-107.5 -130t-111.5 -75t-105.5 -23.5q-78 0 -126 17.5t-48 36.5z" />
<glyph unicode="z" horiz-adv-x="905" d="M76 45l555 795h-346q-33 0 -65 -29t-52 -121l-49 12l18 244q20 -6 39 -9t38 -5t43 -2h56h492l22 -43l-557 -797h422q25 0 46.5 38t43.5 130l47 -10q0 -31 -1 -68t-2 -70.5t-4 -62.5t-5 -47h-715z" />
<glyph unicode="{" horiz-adv-x="688" d="M102 633q117 31 177.5 93t60.5 136q0 61 -6 97t-14.5 68t-14.5 69t-6 98q0 135 87 236.5t237 168.5l26 -47q-78 -47 -131 -121.5t-53 -179.5q0 -57 6 -94t14.5 -69.5t14.5 -69.5t6 -94q0 -86 -47 -160t-133 -111q100 -18 140 -87.5t40 -180.5q0 -59 -6 -101t-14.5 -79 t-14.5 -75t-6 -87q0 -55 7 -97t26.5 -77t53.5 -64.5t87 -58.5l-23 -61q-84 33 -144 70.5t-98 83.5t-56.5 103.5t-18.5 129.5q0 59 6 98t14.5 74t14.5 75.5t6 102.5q0 82 -41 123t-115 41h-20t-11.5 -1t-12.5 -2l-21 -3z" />
<glyph unicode="|" horiz-adv-x="468" d="M180 -383v2005q29 16 52.5 28.5t52.5 18.5l34 -20v-2001q-16 -16 -47.5 -29.5t-56.5 -24.5z" />
<glyph unicode="}" horiz-adv-x="688" d="M39 -266q78 49 131 122.5t53 178.5q0 57 -6 94t-13 69.5t-13.5 69.5t-6.5 97q0 84 47.5 156.5t133.5 109.5q-102 20 -141.5 90t-39.5 180q0 59 6.5 101t13.5 79t13 74t6 86q0 57 -7 100t-27.5 77t-54.5 62.5t-85 57.5l23 61q168 -66 242.5 -153.5t74.5 -231.5 q0 -59 -6 -98t-13.5 -73.5t-13.5 -75.5t-6 -103q0 -164 156 -164h18h11.5t12.5 1t23 6l17 -56q-119 -31 -178.5 -91t-59.5 -138q0 -61 6 -97t13.5 -67t13.5 -67.5t6 -98.5q0 -135 -87 -237.5t-236 -169.5z" />
<glyph unicode="~" horiz-adv-x="999" d="M49 502q20 49 53 101t73 96t85 72t92 28q45 0 94.5 -24.5t96.5 -55.5t92 -55.5t86 -24.5q94 0 176 160l53 -25q-20 -49 -52 -101t-72 -96.5t-86 -72t-93 -27.5q-43 0 -90 24.5t-95 55.5t-95.5 55.5t-90.5 24.5q-94 0 -174 -162z" />
<glyph unicode="&#xa2;" d="M104 586q0 106 39 196t109 157t162 103.5t200 36.5q33 0 68 -5t66.5 -16t58.5 -25.5t43 -33.5q2 -12 -3 -33.5t-14.5 -46t-20.5 -47t-19 -34.5l-35 10q-10 18 -27.5 39.5t-46.5 40t-69 31t-91 12.5q-53 0 -101 -20.5t-85 -63.5t-59.5 -110.5t-22.5 -160.5 q0 -86 25.5 -152.5t67.5 -110.5t97.5 -67.5t114.5 -23.5q29 0 53.5 2t53 14.5t65.5 39t92 73.5l39 -41q-66 -78 -115 -122t-91 -65.5t-81.5 -27.5t-87.5 -6q-72 0 -141 29.5t-123.5 87t-87.5 143.5t-33 197zM475 -16v1230q14 8 19.5 12.5t10.5 7.5t11 5t23 6l26 -22v-1231 q-18 -16 -29.5 -20.5t-35.5 -12.5z" />
<glyph unicode="&#xa8;" horiz-adv-x="800" d="M100 1221q0 57 34 96t81 39q84 0 84 -94q0 -57 -33 -97.5t-82 -40.5q-84 0 -84 97zM500 1221q0 57 33.5 96t80.5 39q86 0 86 -94q0 -57 -33.5 -97.5t-82.5 -40.5q-84 0 -84 97z" />
<glyph unicode="&#xad;" horiz-adv-x="690" d="M61 479q4 23 12.5 46.5t18.5 43.5h512l25 -24q-6 -23 -14.5 -48.5t-16.5 -41.5h-512z" />
<glyph unicode="&#xb4;" horiz-adv-x="696" d="M195 1063l309 311q47 47 88 47q70 0 72 -65q0 -49 -62 -90l-323 -203h-84z" />
<glyph unicode="&#xb7;" horiz-adv-x="299" d="M49 680q0 57 35 96t82 39q84 0 84 -94q0 -57 -33 -97t-84 -40q-84 0 -84 96z" />
<glyph unicode="&#xb8;" horiz-adv-x="468" d="M78 -395q104 18 148 52t44 67q0 35 -26.5 48t-87.5 19l10 29q8 23 21.5 65.5t41.5 128.5l78 -2l-39 -116q53 -10 96.5 -39t43.5 -86q0 -74 -71 -132.5t-237 -82.5z" />
<glyph unicode="&#xbf;" horiz-adv-x="886" d="M80 -246q0 76 23.5 135.5t59.5 111.5t78 100.5t79.5 98.5t64.5 107.5t33 126.5l6 96q16 16 31.5 24.5t42.5 16.5l26 -20l6 -117q4 -57 -15 -113.5t-51 -110.5t-70 -107.5t-70.5 -104.5t-55 -101.5t-22.5 -97.5q0 -123 56 -193.5t161 -70.5q37 0 69.5 16.5t57 44t39 63.5 t14.5 75q0 16 -4 29.5t-10 27.5q35 18 69.5 26.5t79.5 12.5l27 -31q2 -8 2 -16v-16q0 -72 -35 -131.5t-93 -102.5t-134 -67.5t-160 -24.5q-147 0 -226 87t-79 226zM348 799q0 68 39 115t98 47q101 0 101 -113q0 -68 -41 -116t-99 -48q-98 0 -98 115z" />
<glyph unicode="&#xd7;" horiz-adv-x="839" d="M92 281v32l559 559q49 -10 94 -30v-33l-559 -559q-18 4 -44.5 12t-49.5 19zM94 809v33q45 20 92 30l559 -559v-32q-20 -10 -46.5 -18.5t-45.5 -12.5z" />
<glyph unicode="&#xf7;" horiz-adv-x="839" d="M61 530q10 43 31 88h662l24 -24q-4 -20 -13 -46t-17 -42h-662zM340 307q0 47 26.5 78t65.5 31q68 0 68 -76q0 -45 -27 -77t-65 -32q-68 0 -68 76zM340 788q0 45 26.5 76t65.5 31q68 0 68 -76q0 -43 -27 -75.5t-65 -32.5q-68 0 -68 77z" />
<glyph unicode="&#x2c6;" horiz-adv-x="733" d="M49 1092l264 378h107l262 -378q-12 -18 -19.5 -27.5t-23.5 -17.5l-274 268l-271 -268q-16 8 -23.5 17t-21.5 28z" />
<glyph unicode="&#x2c7;" horiz-adv-x="733" d="M49 1427q16 20 22.5 28.5t22.5 19.5l277 -250l268 250q18 -10 25.5 -18.5t17.5 -29.5l-260 -356h-109z" />
<glyph unicode="&#x2da;" horiz-adv-x="512" d="M70 1204q0 51 19.5 94t50 75t69.5 49.5t78 17.5q66 0 110.5 -46.5t44.5 -109.5q0 -51 -19.5 -94t-51 -74t-70.5 -48t-76 -17q-68 0 -111.5 45t-43.5 108zM160 1245q0 -47 22.5 -83t63.5 -36t73.5 30t32.5 87q0 47 -22.5 84t-63.5 37t-73.5 -33t-32.5 -86z" />
<glyph unicode="&#x2dc;" horiz-adv-x="821" d="M70 1133q18 41 42.5 81.5t55.5 72.5t66.5 52.5t74.5 20.5q37 0 71 -18.5t64.5 -40t57 -39t51.5 -17.5q39 0 75 32t70 91l54 -22q-18 -41 -43 -81t-55.5 -73t-66.5 -52.5t-75 -19.5q-35 0 -66.5 17.5t-61.5 39t-59.5 40t-58.5 18.5q-41 0 -73.5 -33t-69.5 -90z" />
<glyph unicode="&#x964;" horiz-adv-x="901" d="M614 217v950l123 -102v-952z" />
<glyph unicode="&#x965;" horiz-adv-x="1138" d="M504 217v950l123 -116v-953zM852 217v950l123 -116v-953z" />
<glyph unicode="&#x981;" horiz-adv-x="0" d="M-618 1860l61 -5q106 -219 260 -219q61 0 111.5 52.5t85.5 150.5q43 -4 43 -65q0 -100 -70 -183q-68 -80 -170 -80q-98 0 -178 91.5t-143 257.5zM-383 1810q0 31 24.5 55.5t57.5 24.5t56.5 -24.5t23.5 -55.5q0 -33 -23.5 -57t-56.5 -24t-57.5 24t-24.5 57z" />
<glyph unicode="&#x982;" horiz-adv-x="712" d="M82 1026q0 49 18.5 96t59.5 88q80 84 180 84q109 0 182 -84q76 -81 76 -190q0 -104 -72 -189q-70 -78 -174 -77q-111 0 -190 80q-80 80 -80 192zM111 436v258q135 -104 303 -283.5t270 -322.5v-92q-63 63 -137 126.5t-149.5 120t-149.5 106.5t-137 87zM203 954 q0 -90 69 -90q84 0 150 66q65 63 65 149q0 98 -81 99q-80 0 -144 -70q-29 -33 -44 -73t-15 -81z" />
<glyph unicode="&#x983;" horiz-adv-x="774" d="M147 301q0 106 84 197q45 43 93.5 65.5t103.5 22.5q104 0 176 -82q72 -83 72 -189t-76 -194q-37 -45 -83 -65.5t-97 -20.5q-113 0 -193 78q-80 80 -80 188zM147 987q0 106 84 195q90 90 197 90q104 0 176 -82q72 -83 72 -189t-76 -194q-37 -45 -83 -65.5t-97 -20.5 q-113 0 -193 78q-80 80 -80 188zM283 262q0 -131 88 -131q39 0 72.5 16.5t58 43t39 62.5t14.5 75q0 53 -28.5 96t-82.5 43q-76 0 -118 -66q-43 -61 -43 -139zM283 948q0 -131 88 -131q39 0 72.5 16.5t58 43t39 62.5t14.5 75q0 53 -28.5 96t-82.5 43q-76 0 -118 -66 q-43 -61 -43 -139z" />
<glyph unicode="&#x985;" horiz-adv-x="1400" d="M-145 1319h1458l114 -115h-213v-1208l-38 24v-2q-78 299 -281 433q-45 -74 -124 -115t-183 -41q-57 0 -116.5 24.5t-118 69.5t-112 108.5t-100.5 139.5q-55 94 -90 223t-51 277l70 -29q29 -141 78 -256t114.5 -198t143 -129t159.5 -46q201 0 269 119q45 84 45 166 q0 29 -7 61q-14 51 -41.5 92t-50.5 62q-39 31 -71.5 37t-67.5 -8q37 -49 37 -93q0 -37 -21.5 -71.5t-58.5 -59.5q-57 -45 -137 -32q-76 14 -119 75q-20 39 -20 84q0 49 24.5 93.5t61.5 72.5q98 68 192 68q45 0 92 -15q66 -23 126.5 -67.5t103.5 -114.5q53 -96 53 -217 q0 -86 -25 -178l150 -135v786h-1131z" />
<glyph unicode="&#x986;" horiz-adv-x="1820" d="M-145 1319h1458l114 -115h-213v-1208l-38 24v-2q-78 299 -281 433q-45 -74 -124 -115t-183 -41q-57 0 -116.5 24.5t-118 69.5t-112 108.5t-100.5 139.5q-55 94 -90 223t-51 277l70 -29q29 -141 78 -256t114.5 -198t143 -129t159.5 -46q201 0 269 119q45 84 45 166 q0 29 -7 61q-14 51 -41.5 92t-50.5 62q-39 31 -71.5 37t-67.5 -8q37 -49 37 -93q0 -37 -21.5 -71.5t-58.5 -59.5q-57 -45 -137 -32q-76 14 -119 75q-20 39 -20 84q0 49 24.5 93.5t61.5 72.5q98 68 192 68q45 0 92 -15q66 -23 126.5 -67.5t103.5 -114.5q53 -96 53 -217 q0 -86 -25 -178l150 -135v786h-1131zM1147 1319h131q104 0 161.5 -46t92.5 -153q0 35 -2 86t-9 121q-4 68 -6 118t-2 85l41 -35q20 -123 72 -176h102l113 -115h-215v-1198l-111 115v850q0 53 -20.5 96t-56 72.5t-82 47t-95.5 17.5z" />
<glyph unicode="&#x987;" horiz-adv-x="1101" d="M-119 1319h778q23 0 49.5 5t49.5 13q63 23 63 68q0 43 -71 63q-23 8 -49.5 11.5t-55.5 3.5t-71 -2t-99 -6t-99 -6.5t-71 -2.5q-129 0 -237 64q-125 74 -125 192q0 25 28 78q29 51 54 47q6 0 14 -1t16 -1q-49 -35 -49 -96q0 -57 62 -94q49 -31 112 -31q25 0 99.5 5 t197.5 16q215 -4 325.5 -85t100.5 -241h96l115 -115h-606q14 -23 30.5 -44t32.5 -40q174 -61 234 -131q92 -90 92 -231.5t-113 -233.5q-84 -72 -256 -116q117 -70 249 -182.5t286 -268.5l27 -119q-82 92 -180.5 173t-221.5 153q-117 66 -241.5 115t-249.5 79l-138 287 q145 -80 322 -94q133 -10 235 43q141 70 136 186q0 37 -11.5 72t-33 61.5t-50 43t-65.5 16.5q-16 0 -29.5 -4t-30.5 -8q0 -82 -69 -150q-72 -68 -152 -68q-51 0 -94 32t-43 83q0 96 82 172q78 72 186 82q0 33 -77 92h-369z" />
<glyph unicode="&#x988;" horiz-adv-x="1198" d="M-127 1319h991q29 0 46.5 26.5t17.5 51.5q0 70 -97 69q-127 0 -243.5 -11t-233.5 -11t-211 63q-106 72 -106 181q0 14 5 33.5t15.5 39t23.5 37t30 27.5l32 -43q-29 -39 -28 -76q0 -104 149 -104q29 0 80 4t107.5 8t109.5 8t84 4q90 0 151.5 -19.5t108.5 -52.5 q51 -35 79 -88t28 -120q0 -6 -1 -13.5t-1 -13.5h102l113 -115h-881q8 -20 20.5 -40.5t28.5 -47.5q135 -10 193.5 -98t58.5 -215q94 98 176 165.5t150 102.5l190 -125q-123 -123 -193.5 -278.5t-70.5 -335.5q0 -154 90 -346q-23 10 -47.5 23.5t-44.5 23.5q-94 205 -94 426 q0 190 96 391q-41 -37 -105.5 -109.5t-142.5 -169.5q-90 -113 -150.5 -172t-115.5 -59q-51 0 -91 22.5t-68.5 58.5t-47 81t-26.5 88l55 49q14 -53 45 -100t84 -47q68 0 141 96q47 63 68.5 113.5t21.5 115.5q0 59 -39 105.5t-94 46.5q-31 0 -63 -19q27 -39 26 -78 q0 -45 -33.5 -74.5t-89.5 -29.5q-70 0 -113.5 43t-43.5 111q0 39 16 69.5t42 53t58.5 38t63.5 25.5l-55 96h-252z" />
<glyph unicode="&#x989;" horiz-adv-x="1222" d="M-129 1319h971q74 -2 73 61q0 53 -65 82q-51 20 -109 21q-29 0 -68.5 -2t-97.5 -6q-53 -4 -95 -6.5t-68 -2.5q-129 0 -238 66q-123 74 -123 194q0 98 62 134l21 -10.5t24 -10.5q-43 -35 -43 -82q0 -63 82 -102q29 -12 64.5 -20.5t70.5 -8.5q29 0 70.5 2t101.5 6 q57 4 101 7.5t73 3.5q160 0 252 -85t86 -241h112l113 -115h-657v-352q0 -35 19.5 -65.5t53.5 -30.5q80 27 148 116q68 98 90 99q82 0 149 -129q61 -115 62 -209q8 -203 -102 -342q-133 -135 -316 -141q-504 0 -608 976l80 -45q8 -123 38.5 -239.5t88.5 -225.5 q152 -268 379 -268q70 0 129 22.5t112 65.5q109 86 109 221q0 78 -64 148q-25 -41 -59.5 -82t-79.5 -76q-41 -35 -82 -53.5t-72 -18.5q-37 0 -70.5 14.5t-59 41t-42 63.5t-16.5 82v428h-487z" />
<glyph unicode="&#x98a;" horiz-adv-x="1363" d="M-119 1319h1110q74 0 74 61q0 53 -68 82q-51 20 -104 21q-27 0 -71 -3t-95 -7q-29 -2 -63.5 -3.5t-68.5 -2.5t-60.5 -1h-40.5q-133 0 -236 66q-123 74 -123 194q0 104 55 134q10 -4 24.5 -10.5t25.5 -10.5q-43 -35 -43 -82q0 -66 82 -102q29 -12 63.5 -20.5t73.5 -8.5 q27 0 69.5 2t102.5 6q29 2 64.5 4t69.5 3t61.5 2.5t41.5 1.5q156 0 247 -80t91 -246h115l111 -115h-658v-352q0 -35 20.5 -65.5t55.5 -30.5q41 4 76 36.5t69 79.5q68 98 90 99q90 0 158 -129q31 -59 42 -110.5t11 -98.5q0 -117 -22.5 -199t-79.5 -141q-131 -143 -315 -143 q-170 0 -297 81.5t-217.5 211.5t-147.5 291t-84 319l82 -35q14 -76 40 -155t61.5 -153.5t82.5 -143t105 -124.5q-57 123 -88 298t-41 384l76 -47q12 -106 31.5 -233t62.5 -237.5t117.5 -184.5t197.5 -74q129 0 242 88q104 86 104 221q0 76 -59 148q-23 -41 -59.5 -81 t-81.5 -75q-92 -74 -154 -74q-76 0 -133.5 55.5t-57.5 145.5v428h-624z" />
<glyph unicode="&#x98b;" horiz-adv-x="1413" d="M37 1233q0 129 127 129q96 0 96 -117q78 8 143.5 53t108.5 111q78 -45 148.5 -110.5t119.5 -147.5v399l115 -112v-635q66 -41 113 -86t79 -99v922l78 -78q2 -37 10.5 -72.5t22.5 -70.5h121l115 -115h-234v-1042q-8 10 -17 19t-16 20q-8 68 -29.5 135t-55 128.5t-81 113 t-106.5 84.5v-664q-23 8 -43 43q-47 131 -94 229.5t-94 155.5q-131 160 -373 203q-29 41 -59.5 87t-61.5 89q88 66 223 145.5t316 171.5q-68 94 -158 101q-23 -39 -60.5 -68t-80.5 -48.5t-90.5 -29.5t-88.5 -10q-37 0 -71.5 12.5t-62 34t-44 52t-16.5 67.5zM428 756 q201 -109 354 -320v537q-100 -51 -188 -105.5t-166 -111.5z" />
<glyph unicode="&#x98c;" horiz-adv-x="1241" d="M155 399.5q-1 26.5 1 42.5q0 37 19.5 84t55 90t83.5 75t106 40q74 2 139.5 -16.5t115.5 -57.5t78.5 -95t28.5 -126q0 -51 -14 -107.5t-47 -119.5q25 8 55.5 26.5t62 42t61.5 49t52 48.5q33 33 51.5 67.5t18.5 73.5q0 57 -50 126t-136 126l-183 133q-59 41 -117.5 83 t-104.5 88t-74.5 94t-28.5 102q0 78 108 131q14 6 28.5 8t31.5 2q37 0 70.5 -13.5t33.5 -45.5q0 -37 -49 -86q-25 -23 -15.5 -50.5t40 -62.5t77.5 -75t103 -85l96 -78l37 -30q37 -31 79 -69t78.5 -85t63.5 -104.5t33 -126.5q8 -80 -18.5 -144.5t-78 -115t-120 -88 t-142 -63.5t-148.5 -38t-136 -12q16 31 45 72q23 37 46 76.5t43.5 81.5t33 83t12.5 82q0 70 -55 125q-23 20 -63 36.5t-87 16.5t-93 -21.5t-75 -74.5q-25 -43 -1 -59.5t65 -26.5q18 -4 36.5 -10t34 -15.5t25.5 -23.5t10 -39q0 -33 -26 -92q-25 -33 -57 -49.5t-64 -16.5 q-68 0 -111 49q-23 20 -36 50t-20 61t-8 57.5z" />
<glyph unicode="&#x98f;" horiz-adv-x="1372" d="M104 694q0 94 27 169t74 132l43 -45q-29 -47 -46.5 -110.5t-17.5 -139.5t24.5 -130t70.5 -83q35 -20 90 -32.5t129 -12.5h48t62 2l109 5q180 0 342 -138v869q0 35 -82 34q-53 0 -101.5 -30.5t-99.5 -89.5q-43 -53 -71.5 -106.5t-40.5 -113.5q45 6 79 7q84 0 84 -131 q0 -63 -45 -99.5t-110 -36.5q-86 0 -142.5 53.5t-56.5 141.5q0 184 156 352q78 78 164 123t174 45q55 0 133 -65q74 -61 74 -117v-1153l-15 4q-27 14 -43 74q-18 51 -34.5 87t-32.5 58q-61 78 -170 78q-57 0 -177 -19q-59 -8 -103 -11t-75 -3q-420 0 -420 432z" />
<glyph unicode="&#x990;" horiz-adv-x="1382" d="M104 672q0 166 99 311q10 -12 18 -26.5t19 -24.5q-29 -45 -43.5 -99.5t-14.5 -125.5q0 -162 105 -224q37 -20 95 -31.5t138 -11.5h90q29 2 49.5 2h34.5q256 0 342 -139v862q0 29 -63 29q-100 0 -201 -119q-41 -47 -71.5 -100t-53.5 -113q16 2 26.5 3t20.5 3q8 2 19 2 q45 0 74.5 -37.5t29.5 -89.5q0 -141 -164 -141q-88 0 -145 74q-23 33 -36 74t-13 84q0 164 162 323q170 160 333 160q174 0 185 -246q137 14 137 117q0 141 -203 207q-92 27 -185 52.5t-186 49.5q-96 37 -146 98.5t-50 139.5q0 88 135 196q6 -8 27.5 -28.5t29.5 -28.5 q-59 -37 -92 -68.5t-33 -60.5q0 -43 53.5 -76t153.5 -57q143 -35 240.5 -63.5t136.5 -49.5q201 -102 201 -309q0 -178 -209 -291v-903q-47 45 -70 127q-10 41 -22.5 71.5t-22.5 41.5q-47 49 -170 49q-29 0 -69.5 -4.5t-96.5 -10.5q-109 -12 -163 -12q-430 0 -431 414z" />
<glyph unicode="&#x993;" horiz-adv-x="1275" d="M66 1159l90 -33q49 -180 112.5 -311t110.5 -203q94 -143 204.5 -218t235.5 -75q51 0 99.5 15.5t85 43.5t58 68.5t21.5 90.5q0 63 -73 116q-47 -49 -109 -49q-59 0 -101 40t-42 99t39 105.5t98 46.5q49 0 96 -27q88 39 88 146q0 139 -147 139q-51 0 -99.5 -11.5 t-95.5 -33.5q-100 -51 -149 -135q74 -49 74 -109q0 -133 -119 -133q-162 0 -162 172q0 78 44 146.5t126 121.5q150 96 319 97q57 0 109.5 -17.5t92.5 -50.5t62.5 -79t22.5 -103q0 -197 -92 -301q106 -133 106 -242q0 -160 -94 -248t-254 -88q-479 0 -757 1020z" />
<glyph unicode="&#x994;" horiz-adv-x="1425" d="M102 1159l78 -39q68 -174 131.5 -305t110.5 -203q94 -143 204.5 -218t233.5 -75q270 14 273 213q0 63 -70 127q-51 -57 -115 -57q-141 0 -141 137q0 147 145 148q39 0 90 -23q92 47 93 154q0 125 -142 125q-256 0 -358 -180q74 -47 74 -132q0 -109 -121 -108 q-164 0 -164 180q0 80 42 148.5t124 119.5q141 86 317 86q115 0 201 -71q88 -78 88 -187q0 -45 -25 -106q-10 -29 -22 -48.5t-31 -29.5v-4q78 12 135 129q23 47 35 95t12 91q0 133 -208 197l-383 102q-98 39 -150.5 99.5t-52.5 140.5q0 139 151 219l64 -72q-98 -33 -98 -100 q0 -51 51 -91t149 -71q154 -53 247 -86.5t122 -48.5q92 -55 143 -136t51 -185q0 -162 -239 -398q82 -127 82 -247q0 -145 -113 -232q-103 -78 -250 -78q-481 0 -764 1020z" />
<glyph unicode="&#x995;" horiz-adv-x="1396" d="M-150 1319h1450l119 -115h-598v-84q201 0 324 -164q117 -147 117 -323q0 -43 -14.5 -82t-39 -68.5t-59.5 -47t-76 -17.5q-29 0 -55.5 11t-48 29.5t-34.5 44t-13 56.5q0 55 38.5 92t96.5 37q35 0 62.5 -16.5t49.5 -44.5l11 26q0 119 -95 213q-92 100 -266 99v-957 q-12 2 -24.5 9.5t-16.5 17.5q-41 100 -97 187t-124 155q-156 156 -348 178l-162 201q293 231 666 352v96h-746zM276 713q287 -121 426 -383h5v620q-104 -39 -209 -97t-222 -140z" />
<glyph unicode="&#x996;" horiz-adv-x="1128" d="M37 1104q0 49 36 88t87 39q104 0 110 -107q35 6 71 25.5t73 48.5q4 2 37.5 36t72.5 71q66 -55 107 -92t51 -48q82 -88 82 -182q0 -100 -80 -192q-80 -88 -184 -117q250 -125 362 -324h4v1182l64 -41q0 -35 4 -70t8 -47q23 -49 96 -55l117 -115h-178v-1192q-23 20 -41 48 t-29 55q-16 41 -29.5 73.5t-19.5 42.5q-41 72 -98.5 127.5t-132.5 100.5h2q-137 82 -303 98l-195 238q23 -4 46.5 -7.5t47.5 -3.5q57 0 122 15.5t130 44.5q80 35 124 77t44 89q0 74 -59 125q-188 -188 -377 -189q-70 0 -121 45t-51 113z" />
<glyph unicode="&#x997;" horiz-adv-x="1132" d="M57 991q0 141 131 234q59 41 126 60.5t141 19.5q182 0 284 -119q70 -82 150 -305l-19 331q-4 100 -7 180.5t-3 145.5l66 -65q-4 -16 -4 -33q-4 -125 102 -123q12 0 33 2l114 -115h-208v-1229l-129 158q2 307 6 461q2 90 2 154q0 68 -27 138t-74 136q-111 145 -241 145 q-199 0 -275 -182q86 37 150 37q49 0 91 -13.5t73 -35.5q33 -29 51 -67t18 -87q0 -66 -62.5 -165t-172.5 -220l-133 152q27 18 63.5 54t77.5 83q49 53 76.5 92t27.5 57q0 55 -67 56q-25 0 -111 -51q-41 -23 -71.5 -36.5t-49.5 -13.5q-45 0 -90 58q-39 51 -39 106z" />
<glyph unicode="&#x998;" horiz-adv-x="1101" d="M-119 1319h1129l112 -115h-186v-1202l-55 51v-2q-90 225 -231.5 330.5t-330.5 95.5l-151 160q76 82 240 233q-41 -16 -91 -16q-90 0 -163 61q-37 33 -55.5 73t-18.5 83q0 63 39 133h-125zM270 1053q0 -53 39 -88t92 -35q117 0 185 92l121 -121q-68 -41 -143 -110.5 t-146 -159.5q270 -106 401 -320v893h-420q-25 0 -48 -14t-41.5 -35.5t-29 -48.5t-10.5 -53z" />
<glyph unicode="&#x999;" horiz-adv-x="1101" d="M29 1022l57 -45q86 -377 229.5 -563.5t341.5 -186.5q115 0 203 60q92 68 92 182q0 68 -71 145q-37 -55 -136 -125q-49 -37 -88 -54t-63 -17q-45 0 -102 41q-115 92 -115 248l8 196q-229 174 -324 311l172 48l66 -127q39 -70 90 -117q92 236 293 235q215 0 215 -196 q0 -104 -86 -160q-74 -47 -184 -47q-94 0 -140 31v-217q0 -84 76 -84q57 0 139 82q31 33 56.5 68.5t42.5 70.5q111 -43 178 -154q68 -111 68 -231q0 -84 -26 -153.5t-73 -119t-114.5 -76t-151.5 -26.5q-160 0 -283 90t-209 256q-49 111 -92 273.5t-69 361.5zM508 963 q14 -18 55 -19q35 0 75 10.5t75 26.5q96 43 96 109q0 49 -57 49q-39 0 -78 -13.5t-72 -37t-57.5 -56.5t-36.5 -69z" />
<glyph unicode="&#x99a;" horiz-adv-x="958" d="M-119 1319h987l117 -115h-706q-12 -170 290 -262q297 -94 289 -233q0 -170 -160 -375q-166 -217 -336 -217q-61 0 -129 73q-63 78 -63 146v868h-176zM283 338q0 -68 51 -68q96 0 221 150q127 150 127 246q0 47 -8 51q-272 86 -391 291v-670z" />
<glyph unicode="&#x99b;" horiz-adv-x="1077" d="M-125 1319h1098l110 -115h-835q82 -180 276 -180q39 0 77 8t77 8q154 -6 233 -108q72 -98 72 -227q0 -135 -125 -240q-39 -35 -98.5 -73t-145.5 -81q100 -53 172 -95t113 -75q47 -37 107.5 -95t128.5 -136l14 -82q-180 186 -399.5 289.5t-475.5 130.5l-112 213 q47 -16 88 -23.5t80 -7.5q98 0 183 20.5t161 57.5q195 96 194 276q-10 135 -192 117q18 -135 -127 -252q-59 -43 -119.5 -69.5t-112.5 -26.5q-33 0 -64.5 11t-56 31.5t-40 48.5t-15.5 58v502h-153zM254 725q0 -68 41 -68q37 0 77 24t74 58q35 39 56.5 80t17.5 80 q-166 37 -266 174v-348z" />
<glyph unicode="&#x99c;" horiz-adv-x="1404" d="M-145 1319h1466l113 -115h-656q-29 -2 -58.5 -25.5t-33.5 -48.5q0 -29 23.5 -49t56.5 -35.5t66.5 -23.5t52.5 -8q94 -8 167.5 7t123.5 42l174 -182q-94 -92 -143.5 -227.5t-49.5 -311.5q0 -133 88 -328l-112 31q-41 117 -66 231.5t-27 243.5q0 168 74 350q-182 0 -295 45 q-119 47 -225 185l-10 4q-29 0 -59.5 -28.5t-63.5 -82.5q-68 -109 -68 -168q0 -84 90 -84q20 0 53 10.5t74 30.5l127 66q74 -33 131 -133q29 -53 45.5 -102.5t16.5 -90.5q0 -127 -96 -227q-94 -94 -226 -94q-297 0 -428 321q-47 117 -70.5 259.5t-23.5 320.5l59 -37 q-6 -49 0 -121q20 -203 107 -338q61 -102 140 -157.5t175 -55.5q88 0 172 39q111 49 111 127q0 31 -17.5 64.5t-50.5 33.5q-12 0 -92 -28q-72 -29 -123 -29q-115 0 -190 92q-78 90 -78 209q0 70 53 162q57 94 121 141h-504z" />
<glyph unicode="&#x99d;" horiz-adv-x="1329" d="M-121 1319h959v-606q102 -66 200 -209v1030l52 -43q-4 -41 4 -78t34 -70q53 -37 115 -24l115 -115h-201v-1034l-51 51v-2q-23 63 -46.5 117.5t-54 99.5t-71.5 81t-96 63v-549l-50 49q-195 467 -571 498l-154 198q147 106 316.5 201.5t349.5 161.5v65h-739zM307 731 q279 -129 422 -395v625q-104 -35 -208.5 -93.5t-213.5 -136.5z" />
<glyph unicode="&#x99e;" horiz-adv-x="1904" d="M106 694q10 193 97 301l45 -45q-29 -47 -45.5 -110.5t-16.5 -139.5q0 -154 95 -213q35 -20 90 -32.5t127 -12.5h49t63 2l107 5q182 0 342 -138v869q0 35 -82 34q-53 0 -101.5 -30.5t-99.5 -89.5q-43 -53 -71.5 -106.5t-38.5 -113.5q45 6 79 7q84 0 84 -131 q0 -63 -46 -99.5t-111 -36.5q-86 0 -142.5 53.5t-56.5 141.5q0 92 40 180t116 172q78 78 164 123t176 45q55 0 131 -65q76 -63 76 -117v-281h4q29 104 131 211q113 113 213 113t174 -80q76 -80 76 -178q0 -119 -101 -225q115 -88 115 -244q0 -41 -8 -84t-28.5 -80 t-56.5 -61.5t-93 -30.5q-53 0 -114 25.5t-120 72.5q-113 94 -192 193v-504l-5 2q-29 0 -55 76q-33 100 -65 145q-61 78 -170 78q-57 0 -176 -19q-59 -8 -103.5 -11t-75.5 -3q-420 0 -420 432zM1182 678q0 -123 104 -215t230 -92q72 0 120 26q29 18 46.5 43t17.5 60 q0 37 -72 108q-88 -51 -125 -51q-57 0 -101 37t-44 94q0 51 43 86t96 35l125 -31q55 88 55 129q0 53 -42 87t-95 34q-121 0 -237 -117q-121 -117 -121 -233z" />
<glyph unicode="&#x99f;" horiz-adv-x="1009" d="M-129 1319h870q0 16 1 35.5t1 36.5q2 102 -143 102q-33 0 -106 -12q-35 -4 -59.5 -6t-43.5 -2q-131 0 -241 63q-121 68 -121 193q0 131 84 137q0 -8 2 -18.5t2 -20.5q-29 -25 -29 -62q0 -72 59 -104q55 -31 127 -31q25 0 61 3t83 7q92 12 141 13q154 0 232 -90 q61 -80 61 -244h63l115 -115h-760v-801q39 -78 111 -77q102 0 211 125q98 117 110 235l-38 -4q-55 0 -101.5 39t-46.5 98q0 63 40 108.5t106 45.5q98 0 161 -96q23 -37 36 -87.5t13 -101.5q0 -170 -141 -336q-143 -176 -311 -176q-109 0 -174.5 67.5t-85.5 190.5v770h-185z " />
<glyph unicode="&#x9a0;" horiz-adv-x="940" d="M-133 1319h508l-133 233q-35 72 -53.5 131.5t-18.5 106.5q0 141 123 246l133 -115q-84 -35 -122 -79t-38 -97q0 -94 86 -232q35 -57 73 -105t79 -89h334l120 -115h-383q104 -111 177 -286q39 -88 56 -167t17 -151q0 -188 -102 -334q-119 -166 -295 -166q-166 0 -264 107 q-102 106 -103 270q0 57 17 113q70 20 136.5 64t119.5 104q59 66 91 135.5t32 138.5q0 35 -7.5 77t-19.5 95h-444zM203 381q0 -180 176 -180q152 0 254 147q88 131 88 291q0 242 -146 418l-4 -4q4 -25 6.5 -49.5t2.5 -49.5q0 -82 -26 -159.5t-71 -139.5q-51 -63 -184 -157 q-96 -72 -96 -117z" />
<glyph unicode="&#x9a1;" horiz-adv-x="1228" d="M-121 1319h1249l111 -115h-651v-465q57 -8 99 17.5t77 67.5t66.5 88t68.5 79q51 -29 90 -71.5t64.5 -95t40 -111t14.5 -115.5q0 -197 -109 -322q-113 -131 -309 -131q-512 0 -604 981l76 -36q12 -131 45 -256t84 -222q137 -264 385 -264q90 -2 171 42t129 111.5t50 149.5 t-68 154q-16 -49 -50 -90t-78 -72t-94 -51.5t-99 -26.5q-160 0 -160 246v393h-483z" />
<glyph unicode="&#x9a2;" horiz-adv-x="976" d="M-121 1319h1022l117 -115h-748v-801q39 -78 111 -77q102 0 211 125q98 117 110 235l-38 -4q-27 2 -53.5 12.5t-47 28.5t-34 43t-13.5 53q0 63 40 108.5t106 45.5q98 0 161 -96q23 -37 36 -87.5t13 -101.5q0 -170 -141 -336q-143 -176 -311 -176q-109 0 -174.5 67.5 t-85.5 190.5v770h-170z" />
<glyph unicode="&#x9a3;" horiz-adv-x="1044" d="M53 924q0 84 28 154.5t75 127.5q104 117 268 117q121 0 217 -98q82 -86 117 -215h4v532l61 -53q0 -90 34 -131t104 -39l114 -115h-203v-1196l-127 129v651q0 143 -83 252q-92 119 -230 119q-92 0 -158 -72q-63 -66 -63 -163q0 -33 7 -65t18 -56q31 -76 92 -76q10 0 13 2 t-3 12v-2q-4 14 -7 28.5t-3 33.5q6 90 110 94q55 0 95 -43t40 -96q0 -37 -17 -68t-45 -52.5t-64.5 -32.5t-73.5 -11q-135 0 -228 98q-92 100 -92 234z" />
<glyph unicode="&#x9a4;" horiz-adv-x="1329" d="M-129 1319h1366l121 -115h-1366zM57 1128l66 -24q72 -170 132 -292t99 -177q178 -260 428 -260q121 0 238 94q98 96 98 215q0 96 -53 170q-63 88 -150 88q-29 0 -84 -14q47 -59 48 -135q0 -166 -183 -166q-90 0 -143 65.5t-53 159.5q0 109 88 178q78 63 188 64 q94 0 174 -40t144 -112q59 -72 89.5 -159t30.5 -183q0 -84 -35.5 -157.5t-97.5 -133.5q-135 -117 -305 -116q-461 0 -719 935z" />
<glyph unicode="&#x9a5;" horiz-adv-x="1134" d="M31 1010q0 137 135 227q123 82 262 82q127 0 213 -96q90 -94 90 -222q0 -215 -285 -389q82 -47 138.5 -82.5t87.5 -60.5q59 -49 103 -96t69 -97h4v1256l57 -70l13 -73q4 -20 14 -38t29 -32h81l117 -115h-201v-1204q-104 141 -173.5 225t-102.5 115q-82 72 -192.5 108.5 t-221.5 38.5l-184 242q47 -8 88 -6t117 26.5t153 71.5q88 53 132 109.5t44 122.5q0 61 -44 104t-105 43q-45 0 -115 -37q-70 -39 -90 -76q63 -70 64 -116q0 -25 -12.5 -47.5t-33 -39t-47 -25.5t-53.5 -9q-68 0 -109.5 46t-41.5 114z" />
<glyph unicode="&#x9a6;" horiz-adv-x="1089" d="M-115 1319h1131l114 -115h-882v-534q61 68 132 126t144.5 106t143 84t127.5 58l188 -143q-78 -152 -119 -291t-41 -268t45 -352l-80 39q-35 162 -52 286.5t-17 204.5q0 150 39 303q-154 -61 -280 -181t-199 -277l-156 161v678h-121z" />
<glyph unicode="&#x9a7;" horiz-adv-x="1062" d="M96 713l303 225q-109 0 -178 51q-35 29 -55.5 68t-20.5 88q0 82 56.5 135t138.5 53q139 0 143 -94q2 -47 -24.5 -73.5t-69.5 -26.5q-20 0 -41.5 8t-46.5 29q-20 -27 -20 -66q0 -55 49 -90t127 -35q23 0 317 176v158h213l115 -115h-213v-1233l-66 92v-2q-23 39 -45 80 t-51 82q-92 135 -184 203q-59 41 -137 65.5t-173 34.5zM344 678q281 -135 430 -381v653q-104 -39 -211.5 -106.5t-218.5 -165.5z" />
<glyph unicode="&#x9a8;" horiz-adv-x="1083" d="M-127 1319h1116l119 -115h-201v-1233l-90 58l8 121q2 195 -90 405q-137 240 -319 240q-23 -2 -33 -11q76 -100 76 -145q0 -74 -43 -124t-115 -50q-221 0 -221 215q0 117 82 192q88 78 200 78q242 0 426 -381h5v635h-807z" />
<glyph unicode="&#x9aa;" horiz-adv-x="1253" d="M74 965q0 61 44 122.5t124 114.5q74 47 147.5 71.5t138.5 24.5q252 0 469 -370l4 2q-6 150 -14 301t-14 303l51 -43q10 -92 18 -119q25 -57 88 -57q16 0 37 4l115 -115h-195v-1196l-122 119l16 612q0 27 -12.5 58.5t-34.5 68.5q-23 35 -45.5 59.5t-42.5 41.5l-404 -406 l-163 60q119 113 118 178q0 119 -69 119q-16 0 -35 -6.5t-47 -16.5q-51 -23 -82 -23q-35 0 -62.5 29t-27.5 64zM299 1020q92 0 134 -61.5t32 -153.5l283 282q-80 88 -181 89q-190 0 -268 -156z" />
<glyph unicode="&#x9ab;" horiz-adv-x="1370" d="M-129 1319h1407l113 -115h-1069q94 -70 176 -153.5t143 -169.5l-291 -242q272 -90 418 -338v807q8 2 25.5 3t36 3t34 3t21.5 1q158 2 278 -96q131 -106 131 -293q0 -207 -200 -207q-51 0 -91 40t-40 93q0 51 36.5 85t85.5 34q70 0 115 -51l12 35q0 186 -284 186l-47 -4 v-934l-70 78v-2q-16 106 -195 291q-70 55 -164 83.5t-204 32.5l-133 195q57 61 142 137t189 162q-41 33 -85 57.5t-97 40.5q-66 23 -116 37.5t-68 24.5q-94 45 -209 176z" />
<glyph unicode="&#x9ac;" horiz-adv-x="1048" d="M-137 1319h1132l111 -115h-236v-1204l-63 76q-6 18 -15.5 37.5t-35 68.5t-72.5 107.5t-88 97.5q-147 135 -391 160l-150 213q344 240 705 360v84h-785zM297 694q309 -129 463 -393v633q-111 -41 -224.5 -98.5t-238.5 -141.5z" />
<glyph unicode="&#x9ad;" horiz-adv-x="1259" d="M-123 1319h1280l119 -115h-1282zM29 1087l69 -22q41 -135 101.5 -255t122.5 -206q90 -111 200.5 -171t235.5 -60q127 0 219 90q94 90 94 219q0 170 -53 170q-156 -188 -371 -188q-106 0 -182 65q-84 66 -84 174q0 182 188 182q59 0 103.5 -39.5t44.5 -99.5 q0 -51 -51 -121q78 -2 165 88q35 39 61 80t52 84q41 -4 84 -42t86 -109q68 -138 68 -240q0 -104 -29 -191t-88 -159q-127 -154 -330 -154q-283 0 -477 330q-47 78 -104.5 224.5t-124.5 350.5z" />
<glyph unicode="&#x9ae;" horiz-adv-x="1105" d="M-137 1319h1153l114 -115h-206v-1204l-45 45q-92 348 -320 422q-51 -66 -104.5 -88.5t-98.5 -22.5q-82 0 -138 54.5t-56 138.5q0 96 71 153q61 49 166 50q55 0 90 -23q0 145 -63 209q-41 39 -158 72q-61 18 -105 37.5t-73 37.5q-43 29 -106 115zM258 1204 q178 -145 246 -239q109 -139 108 -299v-26.5t-2 -29.5q66 -55 116 -112.5t85 -120.5h4v827h-557z" />
<glyph unicode="&#x9af;" horiz-adv-x="1034" d="M-117 1319h1059l117 -115h-182v-1208l-76 88v-2q-25 68 -71 151.5t-118 145.5q-129 100 -370 113l-160 196q78 76 170 150.5t184 134.5q-51 39 -176 92q-57 23 -108.5 48.5t-96.5 53.5q-29 23 -71.5 61t-100.5 91zM307 1202q117 -61 301 -272q-61 -59 -131.5 -130 t-150.5 -157q281 -94 438 -340v901h-457v-2z" />
<glyph unicode="&#x9b0;" horiz-adv-x="1060" d="M-137 1319h1128l115 -115h-236v-1204l-63 76v-2q-33 82 -54.5 119.5t-68.5 96t-88 97.5q-147 135 -391 160h2l-152 213q344 240 705 360v84h-785zM274 221q0 51 35 85t84 34t84 -34t35 -85q0 -47 -35 -83t-84 -36t-84 36t-35 83zM297 694q309 -129 463 -393v633 q-111 -41 -224.5 -98.5t-238.5 -141.5z" />
<glyph unicode="&#x9b2;" horiz-adv-x="1204" d="M-139 1319h1267l117 -115h-213v-1210l-119 110v656q0 61 -44 107t-105 46q-98 0 -98 -118q0 -27 10 -72l-47 -18q-16 92 -92 151q-74 59 -172 59q-43 0 -82 -17t-69 -46t-47 -69t-17 -83q0 -139 165 -163q-37 55 -36 96q0 49 39.5 87t89.5 38q158 -10 157 -170 q-2 -68 -49 -111t-137 -49q-74 0 -135.5 23.5t-105.5 66.5t-68.5 103.5t-24.5 134.5q0 119 66 219q74 111 188 110q147 0 264 -151q0 53 47 98q47 47 95 47q143 0 213 -190v315h-938z" />
<glyph unicode="&#x9b6;" horiz-adv-x="1230" d="M-121 1319h246q90 0 170 -68t98 -164q104 233 289 234q63 0 166 -121q94 -113 117 -184h6l-21 508l70 -66q18 -129 119 -139l114 -115h-192v-1206l-119 117l8 735q0 72 -78 178q-78 102 -147 102q-45 0 -87 -27.5t-42 -68.5q180 -129 180 -213q0 -74 -40 -120t-113 -62 q-57 2 -105.5 38t-71.5 103q-53 -143 -188 -143q-61 0 -101 50t-40 114q0 41 15 81t43 74.5t64.5 61t77.5 41.5q-82 145 -192.5 146t-130.5 -1z" />
<glyph unicode="&#x9b7;" horiz-adv-x="1054" d="M-111 1319h1059l117 -115h-178v-1196q-41 45 -75 87t-62 87q-63 96 -110.5 156.5t-82.5 83.5q-49 35 -127 54.5t-176 23.5q-37 49 -79 101t-79 101l338 287q-68 63 -178 82q-29 4 -66.5 13.5t-78.5 25.5q-35 14 -89.5 66.5t-132.5 142.5zM303 1204q276 -197 471 -385v385 h-471zM344 649q244 -90 428 -350v403q-59 55 -106.5 96.5t-87.5 69.5q-43 -29 -101.5 -82t-132.5 -137z" />
<glyph unicode="&#x9b8;" horiz-adv-x="1210" d="M-113 1319h1237l111 -115h-211v-1208q-29 33 -56.5 64.5t-54.5 64.5q2 61 4.5 103t3.5 70t1 46v35q0 137 -27 239.5t-71 151.5t-103 38t-123 -101q-57 -96 -99 -152.5t-73 -85.5t-52.5 -36t-39.5 -7q-53 0 -95 25.5t-75 63.5t-57.5 82t-45.5 83l76 70q6 -20 15.5 -47 t23.5 -50.5t33.5 -40t44.5 -16.5q10 0 24.5 8t38 34t61.5 72t95 121q-10 82 -27.5 128.5t-49 72t-80 38.5t-119.5 30q-41 10 -83 31.5t-87 56.5q-16 12 -51 45t-89 86zM373 1204q92 -82 128 -151.5t38 -157.5q57 63 105 82.5t91 3.5t86 -61.5t92 -108.5v393h-540z" />
<glyph unicode="&#x9b9;" horiz-adv-x="1032" d="M-160 1319h1159l115 -115h-606q16 -23 32.5 -44t30.5 -40q176 -61 234 -131q92 -90 92 -237q0 -135 -113 -228q-82 -70 -256 -116q117 -70 249 -182.5t286 -268.5v2l27 -121q-82 92 -180.5 173t-221.5 153q-117 66 -241.5 115t-249.5 79l-138 287q141 -78 322 -94 q133 -10 235 43q141 70 136 186q0 37 -11.5 72t-33 61.5t-50 43t-51 17.5t-40 -2t-34.5 -11q0 -82 -69 -150q-72 -68 -152 -68q-51 0 -94 32t-43 83q0 96 82 172q80 74 186 82q0 33 -77 92h-410z" />
<glyph unicode="&#x9bc;" horiz-adv-x="0" d="M-2 -227q0 47 33 79.5t80 32.5t80.5 -32.5t33.5 -79.5t-33.5 -80t-80.5 -33t-80 33t-33 80z" />
<glyph unicode="&#x9bd;" horiz-adv-x="1071" d="M59 645q145 -80 322 -94q133 -10 235 43q141 70 136 186q0 37 -11.5 72t-33 61.5t-50 43t-62.5 15.5t-63 -11q0 -82 -69 -150q-72 -68 -152 -68q-51 0 -94 32t-43 83q0 100 80 168q39 33 87 56.5t97 33.5q27 4 67.5 6t69.5 -2q135 -27 230 -131q92 -90 92 -237 q0 -135 -98.5 -217t-270.5 -127q117 -70 249 -182.5t286 -268.5l27 -119q-82 92 -180.5 173t-221.5 153q-117 66 -241.5 115t-249.5 79z" />
<glyph unicode="&#x9be;" horiz-adv-x="423" d="M-229 1319h131q104 0 161.5 -46t92.5 -153q0 35 -2 86t-9 121q-4 68 -6 118t-2 85l41 -35q20 -123 72 -176h102l113 -115h-215v-1198l-111 115v850q0 53 -20.5 96t-56 72.5t-82 47t-95.5 17.5z" />
<glyph unicode="&#x9bf;" horiz-adv-x="423" d="M-147 1319h305l-80 76q-45 45 -45 92q0 139 155 262q152 115 293 115q365 0 697 -344l22 -62q-55 49 -122.5 97.5t-153.5 95.5q-78 45 -161 65.5t-171 20.5q-129 0 -264 -90q-150 -98 -158 -220l45 -108h125l117 -115h-201v-1198l-117 115v1083h-174z" />
<glyph unicode="&#x9c0;" horiz-adv-x="425" d="M-897 1692q0 55 43 99t121 79q61 23 131 38t135 15q559 0 725 -604h111l112 -115h-223v-1198l-113 115v1083h-168l-124 115h292q-84 485 -657 485q-47 0 -94 -5t-94 -17q-139 -31 -140 -94q0 -51 176 -62q236 -12 314 -35q92 -29 137 -80t45 -135q0 -8 -8 -69h-115 q49 35 49 82q0 66 -174 84q-133 16 -212 26t-101 14q-78 25 -123 70t-45 109z" />
<glyph unicode="&#x9c1;" horiz-adv-x="0" d="M-549 -225q0 41 17.5 74.5t46 58t66.5 38t79 13.5q66 0 168 -61q14 31 11 93t-17 138l96 -63q23 -49 26 -115t-1 -115q45 -39 93 -87t89 -95q35 -41 50 -64.5t30 -48.5v-90q-31 41 -68 83t-77 80t-79.5 69.5t-74.5 52.5q-90 -127 -234 -137q-88 0 -155 47q-66 49 -66 129 zM-434 -219q0 -53 57 -64q49 -6 103 19q47 31 63 63q-20 23 -45.5 34t-58.5 17q-115 -2 -119 -69z" />
<glyph unicode="&#x9c2;" horiz-adv-x="0" d="M-442 -176q0 47 17 85t54 66q66 53 160 54q37 0 70 -9l6 140q23 -23 42 -50.5t34 -50.5q4 -23 -13 -139q-35 12 -65 12q-41 0 -62.5 -1t-54.5 -13q-72 -41 -65 -106q2 -23 22.5 -43.5t69.5 -22.5q37 -6 93 7.5t122 66.5l342 -295l-2 -119l-328 279q-111 -74 -227 -72 q-86 0 -150 63q-66 63 -65 148z" />
<glyph unicode="&#x9c3;" horiz-adv-x="0" d="M-545 -227l344 252l39 112l105 -186l-256 -203l415 -268l39 -119z" />
<glyph unicode="&#x9c4;" horiz-adv-x="0" d="M-508 -260l342 203l39 92q23 -37 48.5 -74t47.5 -74l-260 -145l322 -186q23 -29 40 -63t21 -68q-43 39 -250 143l-118 -66l321 -188q23 -29 41.5 -65.5t24.5 -71.5q-49 55 -603 323l218 127q-51 27 -109.5 54.5t-124.5 58.5z" />
<glyph unicode="&#x9c7;" horiz-adv-x="667" d="M-150 1319h760l113 -115q-129 -31 -223 -96.5t-160 -163.5q-59 -92 -90 -204.5t-31 -252.5q2 -123 66 -221q111 -154 215 -123q-39 25 -56.5 57.5t-17.5 67.5q0 53 44 90t97 37q57 0 98.5 -46t41.5 -118q0 -41 -16.5 -75.5t-45.5 -60t-66.5 -40t-78.5 -14.5 q-201 0 -307 201q-90 164 -91 379q0 299 244 583h-381z" />
<glyph unicode="&#x9c8;" horiz-adv-x="663" d="M-150 1319h564l32 47q0 41 -28.5 69.5t-79.5 45.5q-53 16 -107.5 29.5t-105.5 29.5q-53 27 -83 74t-30 115q0 25 12.5 51t34.5 57l39 -39l-26 -47q0 -96 131 -109q193 -16 237 -40q59 -35 92 -106t33 -177h115l113 -115h-64q-129 -31 -225 -96.5t-162 -163.5 q-123 -184 -123 -457q0 -119 66 -221q74 -133 182 -133h8q16 0 25 10q-39 25 -56.5 57.5t-17.5 67.5q0 53 44 90t97 37q57 0 98.5 -46t41.5 -118q0 -41 -16.5 -75.5t-45.5 -60t-66.5 -40t-78.5 -14.5q-201 0 -307 201q-90 164 -91 379q0 299 244 583h-381z" />
<glyph unicode="&#x9cb;" horiz-adv-x="1327" d="M-129 1319h893q145 0 217 -86q27 -29 49.5 -82t50.5 -133q-47 199 -47 508l43 -33q16 -121 72 -174h82l110 -115h-192v-1239q-27 29 -55.5 59.5t-55.5 59.5v887q0 115 -114 178q-92 55 -211 55q-96 0 -215 -92q-109 -84 -164 -170q-115 -186 -115 -455q0 -57 17.5 -116.5 t48.5 -114.5q76 -137 182 -137q2 2 8 4q4 2 10.5 3t14.5 5q-74 61 -74 129q0 51 44 88t97 37q57 0 98.5 -48t41.5 -106q0 -41 -16.5 -75.5t-45.5 -60t-66.5 -40t-78.5 -14.5q-201 0 -307 201q-90 164 -91 379q0 299 244 583h-360z" />
<glyph unicode="&#x9cc;" horiz-adv-x="1296" d="M-129 1319h1085l31 78q0 115 -217 114q-45 0 -108 -6l-76 -4q-176 0 -291 51q-158 66 -158 213q0 31 17.5 70t50.5 86l45 -39q-41 -33 -41 -84q0 -147 256 -147q25 0 58.5 2t80.5 8q47 4 82 7t57 3q356 0 357 -266q0 -23 -4 -43.5t-9 -42.5h113l115 -115h-232v-1235 l-127 125v1110h-247q-92 0 -211 -92q-109 -84 -164 -170q-115 -186 -115 -455q0 -57 17.5 -116.5t48.5 -114.5q76 -137 182 -137q2 2 8 4q4 2 10.5 3t14.5 5q-74 61 -74 129q0 51 44 88t97 37q57 0 98.5 -48t41.5 -106q0 -41 -16.5 -75.5t-45.5 -60t-66.5 -40t-78.5 -14.5 q-201 0 -307 201q-90 164 -91 379q0 299 244 583h-360z" />
<glyph unicode="&#x9cd;" horiz-adv-x="0" d="M-420 -14l365 -344l-2 -97l-363 287v154z" />
<glyph unicode="&#x9ce;" horiz-adv-x="954" d="M29 944q0 162 112 275q115 115 279 114q63 0 119.5 -20.5t97.5 -58t65.5 -90t24.5 -115.5q0 -100 -58.5 -162t-156.5 -62q-238 2 -297 291q-76 -31 -82 -143q0 -154 205 -271q96 -51 189.5 -96t189.5 -104q201 -148 201 -369q0 -43 -7 -86l-88 27q27 33 27 80 q0 66 -55.5 123t-159.5 110q-100 49 -199.5 92t-195.5 101q-211 145 -211 364zM303 1155q0 -90 66 -156q61 -53 123 -45q59 8 101 43t36 86q-23 123 -228 103q-61 -8 -98 -31z" />
<glyph unicode="&#x9d7;" horiz-adv-x="497" d="M-635 1765q0 31 16.5 70t51.5 86l45 -39q-41 -33 -41 -84q0 -147 256 -147q25 0 59.5 2t81.5 8t82 8t57 2q354 0 355 -266q0 -23 -3 -43.5t-10 -42.5h101l114 -115h-221v-1231l-123 125v1106h-192l-115 115h307q27 41 29 78q0 115 -217 114q-47 0 -92 -5t-92 -5 q-172 -2 -289 51q-160 68 -160 213z" />
<glyph unicode="&#x9dc;" horiz-adv-x="1222" d="M-121 1319h1249l111 -115h-651v-465q57 -8 99 17.5t77 67.5t66.5 88t68.5 79q51 -29 90 -71.5t64.5 -95t40 -111t14.5 -115.5q0 -197 -109 -322q-113 -131 -309 -131q-512 0 -604 981l76 -36q12 -131 45 -256t84 -222q137 -264 385 -264q90 -2 171 42t129 111.5t50 149.5 t-68 154q-16 -49 -50 -90t-78 -72t-94 -51.5t-99 -26.5q-160 0 -160 246v393h-483zM549 -125q0 57 40 97t97 40t97 -40t40 -97q0 -59 -40 -98t-97 -39t-97 39t-40 98z" />
<glyph unicode="&#x9dd;" horiz-adv-x="978" d="M-121 1319h1002l114 -115h-692v-772q0 -78 57 -78q96 0 205 131q47 57 77 115.5t34 112.5q-35 -12 -68 -7t-58.5 22t-41.5 46t-16 62q-2 70 37.5 115.5t105.5 45.5q45 0 85 -21.5t67.5 -56t44 -77.5t16.5 -84q0 -188 -129 -363q-133 -188 -318 -188q-219 0 -219 325v672 h-192zM293 -74q0 57 40 97t97 40q59 0 98 -39.5t39 -97.5q0 -55 -39 -96t-98 -41q-57 0 -97 41t-40 96z" />
<glyph unicode="&#x9df;" horiz-adv-x="1052" d="M-117 1319h1063l119 -115h-186v-1218q-47 35 -127 176q-86 150 -166 219q-131 102 -340 113l-154 198q92 88 181 168t165 135q-20 23 -79.5 51.5t-157.5 65.5q-231 68 -318 207zM287 188q0 49 34.5 84t81.5 35q49 0 84 -34.5t35 -84.5q0 -47 -34.5 -81.5t-84.5 -34.5 q-47 0 -81.5 34.5t-34.5 81.5zM326 1204q53 -33 126.5 -104.5t159.5 -175.5q-70 -66 -139.5 -136.5t-140.5 -148.5q283 -98 430 -348h4v913h-440z" />
<glyph unicode="&#x9e0;" horiz-adv-x="1413" d="M37 1233q0 129 127 129q96 0 96 -117q78 8 143.5 53t108.5 111q78 -45 147.5 -110.5t116.5 -147.5h4v399l115 -112v-635q129 -78 188 -185h4v922l111 -110v-111h121l115 -115h-234v-950l-33 39q-27 240 -272 369v-564l-51 80l-260 -190q111 -78 171 -119t126.5 -98.5 t79.5 -186.5q-35 49 -104 104.5t-169 121.5l-317 186l391 307q-86 119 -204 199t-267 127h2q-31 41 -61.5 87t-61.5 89q88 66 223 145.5t316 171.5q-68 94 -160 101q-35 -70 -137 -113q-96 -43 -181 -43q-74 0 -133 43q-61 51 -61 123zM428 756q201 -109 354 -320v537 q-100 -51 -188 -105.5t-166 -111.5z" />
<glyph unicode="&#x9e1;" horiz-adv-x="1228" d="M155 399.5q-1 26.5 1 42.5q0 37 19.5 84t55 90t83.5 75t106 40q74 2 139.5 -16.5t115.5 -57.5t78.5 -95t28.5 -126q0 -51 -14 -107.5t-47 -119.5q25 8 55.5 26.5t62 42t61.5 49t52 48.5q33 33 51.5 67.5t18.5 73.5q0 57 -50 126t-136 126l-183 133q-59 41 -117.5 83 t-104.5 88t-74.5 94t-28.5 102q0 78 108 131q14 6 28.5 8t31.5 2q37 0 70.5 -13.5t33.5 -45.5q0 -37 -49 -86q-25 -23 -15.5 -50.5t40 -62.5t77.5 -75t103 -85l96 -78l37 -30q37 -31 79 -69t78.5 -85t63.5 -104.5t33 -126.5q8 -80 -18.5 -144.5t-78 -115t-120 -88 t-142 -63.5t-148.5 -38t-136 -12q16 31 45 72q23 37 46 76.5t43.5 81.5t33 83t12.5 82q0 70 -55 125q-23 20 -63 36.5t-87 16.5t-93 -21.5t-75 -74.5q-25 -43 -1 -59.5t65 -26.5q18 -4 36.5 -10t34 -15.5t25.5 -23.5t10 -39q0 -33 -26 -92q-25 -33 -57 -49.5t-64 -16.5 q-68 0 -111 49q-23 20 -36 50t-20 61t-8 57.5zM492 -336q2 25 15 54.5t36.5 56t54.5 47t68 26.5q47 2 90 -9t74.5 -36.5t51 -62.5t19.5 -84t-14 -90q25 16 47 37.5t43 42.5q12 12 19.5 25.5t7.5 33.5q0 27 -28 64.5t-75 68.5l-108 76q-35 25 -71 51.5t-64.5 55t-47 59.5 t-18.5 65q0 55 76 101q10 2 21 2h26q29 0 54.5 -11.5t25.5 -41.5q0 -23 -35 -64q-14 -14 17.5 -45t76.5 -66l23 -20l59 -47l22 -19q23 -20 48.5 -43.5t48 -52t39 -64.5t20.5 -81q6 -74 -33 -129.5t-101 -91t-135 -53t-130 -19.5q-10 0 -15.5 8t-1.5 19q10 29 11.5 28.5 t5.5 5.5v-2l8 13l14 22q23 37 45.5 79t22.5 83q0 25 -31 59q-10 8 -30.5 16.5t-43.5 8.5t-45 -10.5t-32 -32.5q-6 -12 0 -16.5t16 -8.5h-4h10q25 -8 49.5 -20t24.5 -51q0 -14 -3 -29.5t-14 -38.5q-18 -23 -40.5 -35t-45.5 -12q-47 0 -79 37q-31 27 -39.5 71t-5.5 70z" />
<glyph unicode="&#x9e2;" horiz-adv-x="714" d="M147 -543q2 25 15.5 54.5t37 56t54.5 47t68 27.5q47 2 90 -9.5t74.5 -37t51 -62.5t19.5 -84t-14 -90q25 16 44 26.5t40 30.5q12 12 22 37t10 45q0 27 -27.5 65t-74.5 68l-108 76q-35 25 -71 51.5t-64.5 55t-47 59.5t-18.5 66q0 55 76 100q10 2 21 2h26q29 0 54.5 -11.5 t25.5 -41.5q0 -23 -35 -64q-14 -14 17.5 -45t76.5 -65l22 -21l60 -47l22 -18q23 -20 48.5 -44t48 -52.5t39 -64.5t20.5 -81q6 -74 -33 -129t-101.5 -91t-135 -53.5t-129.5 -19.5q-10 0 -15.5 8t-1.5 19q10 29 11.5 28.5t5.5 6.5v-3l8 13l14 22q23 37 45.5 79t22.5 83 q0 25 -31 59q-10 8 -30.5 16.5t-43.5 8.5t-45 -10t-32 -33q-6 -12 0 -16t16 -9h-4h10q25 -8 49.5 -20t24.5 -51q0 -14 -3 -29.5t-14 -38.5q-18 -23 -40.5 -35t-45.5 -12q-47 0 -79 37q-31 27 -39.5 71t-6.5 70z" />
<glyph unicode="&#x9e3;" horiz-adv-x="663" d="M94 -205q2 18 13.5 42t30 45.5t43 39t52.5 21.5q78 4 133.5 -38t55.5 -118q0 -16 -2 -34.5t-8 -37.5q18 14 36.5 30.5t34.5 33.5q10 10 15.5 21.5t5.5 27.5q0 20 -21.5 51t-60.5 55l-86 60q-29 20 -57.5 40.5t-52 44t-38 48.5t-14.5 53q0 45 62 80q10 2 36 2 q23 0 44.5 -9t21.5 -34q0 -18 -29 -51q-10 -10 15.5 -34.5t60.5 -53.5l18 -17l48 -38l18 -15q18 -16 37.5 -34.5t38 -42t31 -52t16.5 -63.5q6 -68 -37 -117l25 -18l18 -17l47 -39l19 -14q18 -16 37.5 -34.5t38 -42t30.5 -52.5t16 -64q6 -59 -25.5 -103t-80.5 -72.5 t-107.5 -43t-105.5 -16.5q-6 0 -11 6t-1 16q8 23 9 23t3 4l8 8l10 19q16 29 36 62.5t20 66.5q0 20 -25 49q-10 6 -25.5 12t-33.5 6t-36 -8t-28 -27q-8 -14 13 -18h6q20 -6 39.5 -16.5t19.5 -40.5q0 -10 -2 -23.5t-10 -32.5q-31 -37 -70 -36q-35 0 -63 28q-25 23 -32 57.5 t-5 57.5q2 18 13 41.5t29.5 45t43 39t53.5 21.5q78 4 133 -38t55 -117q0 -16 -2 -35t-8 -37q18 14 37 30.5t35 33.5q10 10 15 21t5 28q0 20 -21.5 51t-60.5 55l-86 60q-14 10 -28.5 20t-26.5 21q-49 -27 -103.5 -40.5t-99.5 -15.5q-6 0 -11 6t-1 17q8 23 9 22.5t3 3.5l9 9 l10 18q16 29 35.5 62.5t19.5 66.5q0 20 -24 49q-10 6 -25.5 12.5t-34.5 6.5q-18 0 -35.5 -8.5t-27.5 -26.5q-8 -14 12 -19h2h4q20 -6 39.5 -16t19.5 -41q0 -10 -2 -23.5t-10 -31.5q-31 -37 -69 -37q-35 0 -64 29q-25 23 -32 57.5t-5 56.5z" />
<glyph unicode="&#x9e6;" horiz-adv-x="1148" d="M96 635q23 186 144 305q137 119 325 119q195 0 326 -131q133 -133 133 -330q0 -188 -137 -319q-139 -129 -330 -129q-201 0 -334 137q-135 141 -127 348zM250 504q0 -45 17.5 -85t46 -70t67.5 -47t84 -17q156 4 278 125q123 120 127 282q0 104 -60 168t-165 64 q-156 -4 -272 -131q-119 -129 -123 -289z" />
<glyph unicode="&#x9e7;" horiz-adv-x="903" d="M94 166q0 92 78 153q82 66 174 66q162 0 238 -86q41 41 58 84t17 88q0 102 -143 248q-63 59 -133 123.5t-135 122.5q-59 53 -102.5 121.5t-43.5 107.5q0 61 41 106.5t103 45.5q113 0 112 -158v-29.5t-2 -34.5q98 -96 169 -170.5t112 -132.5q149 -200 149 -372 q0 -180 -147 -318q-150 -137 -326 -137q-82 0 -143 47q-76 53 -76 125z" />
<glyph unicode="&#x9e8;" horiz-adv-x="1085" d="M80 733q43 -72 211 -137q82 -33 151.5 -51.5t122.5 -18.5q82 0 158 41q90 49 90 123q0 113 -149 207q-66 37 -134.5 73t-136.5 70q-143 78 -143 150q0 53 36 94t89 41q119 0 127 -125q184 -92 274 -176q133 -127 133 -285q0 -276 -325 -377q104 -59 233 -161.5 t281 -243.5l24 -137q-92 96 -198.5 179t-225.5 155q-123 76 -254 128t-254 76z" />
<glyph unicode="&#x9e9;" horiz-adv-x="1179" d="M25 1063l96 -47q12 -104 46 -227t95.5 -230.5t151.5 -179.5t215 -72q76 0 143.5 21.5t118.5 61.5t82 99.5t35 135.5q10 313 -260 401q39 -74 36 -133q-2 -86 -63.5 -143.5t-147.5 -53.5q-88 2 -147 78q-57 76 -55 168q12 272 317 266q172 -6 320 -209q116 -180 110 -381 q0 -115 -33.5 -211t-94 -166.5t-143.5 -110.5t-181 -40q-115 0 -204 47t-156.5 125t-115 179.5t-80 209t-53 215t-32.5 197.5z" />
<glyph unicode="&#x9ea;" horiz-adv-x="1026" d="M92 403q0 104 83 186.5t190 104.5q-236 66 -236 289q0 84 33 152.5t91 116.5t140 75t178 27q135 0 234 -78q109 -90 108 -215q0 -88 -62.5 -168t-150.5 -121q256 -79 256 -360q-4 -96 -44 -161t-104.5 -102.5t-148.5 -54t-174 -16.5q-66 0 -135 23.5t-126.5 65.5 t-94.5 102.5t-37 133.5zM266 387q10 -49 34 -83t59.5 -56.5t78.5 -33.5t80 -11q94 -2 181 46t89 128q0 53 -25.5 102t-64.5 88t-89 61.5t-99 22.5q-45 -12 -86 -37.5t-77 -57.5t-57.5 -77t-23.5 -92zM291 1077q0 -72 25.5 -118t64.5 -73.5t85 -41t89 -19.5q221 120 221 224 q0 45 -22.5 82.5t-58.5 65.5t-80 44t-89 16q-39 -2 -78.5 -13t-73.5 -33.5t-57.5 -55.5t-25.5 -78z" />
<glyph unicode="&#x9eb;" horiz-adv-x="1163" d="M78 561q0 104 36 222t124 237q94 127 211.5 199.5t222.5 101.5l186 -72q-106 -35 -106 -133q0 -31 15 -55.5t37.5 -42t49.5 -28.5t49 -17q29 -8 51.5 -11.5t49.5 -19.5l147 -84q-92 -25 -172 -61.5t-150 -94.5q-168 -139 -167 -301q0 -129 68.5 -212t213.5 -121 q-47 -23 -102.5 -35.5t-114.5 -12.5q-129 0 -242.5 36t-199.5 102q-98 74 -152.5 176t-54.5 227zM223 512q0 -164 137 -276q80 -51 146.5 -81t157.5 -44q-143 129 -144 305q0 145 84 272q82 125 217 184q-156 18 -207 224q-88 -39 -158.5 -97.5t-123.5 -138.5 q-53 -84 -81 -169t-28 -179z" />
<glyph unicode="&#x9ec;" horiz-adv-x="1208" d="M41 1030l63 -31q55 -287 187 -489q170 -268 416 -268q150 0 239 90q94 90 94 233q0 43 -13 87t-42 89q-39 -92 -123 -142t-182 -50q-172 0 -240 190q-10 29 -22 115t-29 227q-45 0 -76.5 35t-31.5 78q0 45 34.5 78t79.5 33q164 0 164 -256v-24.5t-2 -41.5t-4 -71t-4 -113 q2 -121 84 -121q41 0 84 29.5t90 85.5q37 47 64.5 94t41.5 98q220 -164 220 -438q0 -104 -26 -191.5t-79 -158.5q-117 -162 -315 -162q-291 0 -488 366q-158 295 -184 629z" />
<glyph unicode="&#x9ed;" horiz-adv-x="1107" d="M113 901q0 150 110 266q111 119 260 119q238 0 334 -215q74 -160 74 -463q0 -23 -1 -55.5t-2 -69.5t-2 -74.5t-1 -70.5v-113q53 0 83.5 -26.5t30.5 -79.5q0 -119 -114 -119q-158 0 -158 313q0 80 8 152t8 143h-354q-109 0 -192.5 93.5t-83.5 199.5zM258 860 q0 -82 119 -82h366l2 47q0 49 -13 99.5t-42 107.5q-70 133 -149 133q-53 0 -103.5 -26.5t-91.5 -73.5q-88 -98 -88 -205z" />
<glyph unicode="&#x9ee;" horiz-adv-x="1224" d="M51 1180q0 121 103 120q170 0 170 -307v-56.5t-5 -72.5l-6 -102q78 133 234 133q31 0 61.5 -14.5t61.5 -36.5l102 -107q29 25 43 56.5t47 66.5q12 12 41 16.5t62 4.5q80 0 108 6q29 10 48.5 34.5t35.5 59.5l21 -10q8 -39 8 -74q0 -59 -28 -100t-73 -62q-37 -12 -206 -24 q-63 -6 -64 -37q0 -27 19 -82q20 -49 20 -80q0 -158 -152 -309q-147 -147 -305 -148q-25 0 -59.5 22.5t-73.5 63.5q-37 43 -57.5 78t-20.5 60v784l-36 -2q-45 2 -72 40t-27 79zM311 262q0 -25 33 -69q63 0 122.5 39.5t113.5 113.5q47 68 74.5 137t27.5 135q0 53 -59 89 q-43 29 -105 28q-111 0 -207 -69v-404z" />
<glyph unicode="&#x9ef;" horiz-adv-x="1126" d="M92 356q-2 68 20.5 133.5t64.5 115.5t104.5 82t138.5 34q68 2 124 -24.5t99 -72.5t68.5 -105.5t27.5 -123.5q2 -37 -5 -73.5t-25 -71.5q39 20 75.5 42.5t65.5 49.5t47 61.5t18 77.5q-14 106 -79.5 171t-156.5 113t-188.5 86t-173.5 93q-96 63 -150 134t-52 153 q2 68 36.5 113t88.5 40q53 -4 81.5 -39.5t26.5 -82.5q-2 -41 -47 -82q-2 -23 53.5 -58t153.5 -73q47 -23 97 -42.5t98.5 -43t91.5 -49t82 -60.5q68 -57 124 -156.5t54 -240.5q2 -92 -48.5 -164t-126 -121t-167.5 -76.5t-174 -29.5q4 37 14 71.5t21.5 70.5t18.5 72.5t9 73.5 q-2 41 -13 87t-36 79t-61.5 54.5t-85.5 21.5q-39 -2 -64 -12.5t-53.5 -42t-36.5 -71.5t-12 -83q2 -20 7 -40.5t23 -29.5q23 10 63 9.5t76.5 -29.5t36.5 -94q-8 -63 -46 -95t-99 -30q-57 0 -101 30.5t-65.5 71.5t-32 88t-10.5 88z" />
<glyph unicode="&#x9f0;" horiz-adv-x="1077" d="M-117 1319h1092l110 -115h-215v-1204l-63 76q-35 90 -89 170t-122 141q-147 135 -389 160l-152 213q344 240 705 360v84h-764zM297 694q309 -129 463 -393v229q-88 82 -176 146.5t-154 101.5q-35 -23 -67.5 -42t-65.5 -42zM543 846l217 -184v276q-59 -23 -114.5 -46.5 t-102.5 -45.5z" />
<glyph unicode="&#x9f1;" horiz-adv-x="1077" d="M-117 1319h1092l110 -115h-215v-1204l-63 76q-76 156 -123 214t-88 97q-147 135 -391 160l-150 213q344 240 705 360v84h-764zM248 391q119 -29 223 -102.5t182 -184.5v-90q-96 111 -192 173.5t-191 72.5zM297 694q309 -129 463 -393v633q-111 -41 -224.5 -98.5 t-238.5 -141.5z" />
<glyph unicode="&#x9f2;" horiz-adv-x="962" d="M129 811l76 152q168 -10 304 -91t234 -237q84 -131 129.5 -291t51.5 -342h-72q-6 154 -60.5 291t-152.5 252q-100 119 -229 187.5t-281 78.5z" />
<glyph unicode="&#x9f3;" horiz-adv-x="1089" d="M80 913h194v230q0 80 -71 80q-16 0 -29.5 -7.5t-30.5 -13.5l-41 115q66 27 117 26q92 0 134 -61t42 -203v-166h113l88 -108h-201v-531q6 -102 119 -102q106 0 191 90q84 90 83 203q-29 -6 -51 -6q-59 0 -94 34.5t-35 102.5q0 80 43 120t111 40q207 0 207 -254 q-12 -197 -142 -324q-125 -125 -274 -125q-178 0 -242 94q-29 41 -37 96.5t-8 133.5v428h-104z" />
<glyph unicode="&#x9f4;" horiz-adv-x="978" d="M82 186q141 41 264 116t223.5 177.5t175 231.5t117.5 278l101 -31q-111 -399 -319 -638.5t-501 -303.5q-14 43 -30.5 86t-30.5 84z" />
<glyph unicode="&#x9f5;" horiz-adv-x="1224" d="M133 305q4 53 27.5 104.5t60.5 98.5q37 39 88 65.5t99 26.5q102 0 163.5 -61.5t61.5 -159.5q0 -53 -20.5 -104.5t-59.5 -104.5q215 78 358.5 259t206.5 435l68 31q-25 -391 -236 -627q-102 -115 -243.5 -189.5t-305.5 -109.5l-47 150q72 23 110 70t38 114q0 29 -7.5 52.5 t-17.5 43.5q-29 49 -84 50q-63 0 -106 -39t-47 -99z" />
<glyph unicode="&#x9f6;" horiz-adv-x="1447" d="M197 481q0 86 120 150q51 23 104.5 37t100.5 14q84 0 144 -66q63 -68 63 -145q0 -96 -111 -166q-27 -20 -75.5 -42.5t-120.5 -51.5q-113 -47 -117 -82q23 -35 92 -35q199 0 339.5 55.5t217.5 157.5q39 61 80 178t70 271q27 147 68.5 244.5t95.5 146.5l135 -117 q-76 -35 -126 -125t-75 -221q-31 -162 -65.5 -287t-67.5 -178q-80 -111 -225.5 -171t-356.5 -60q-274 0 -274 159q0 39 25.5 69t66.5 48q43 18 86 33.5t86 32.5q96 39 96 108q0 25 -10 47.5t-26.5 41t-39 29.5t-46.5 11q-43 0 -86 -90q-41 -84 -80 -84q-88 0 -88 88z" />
<glyph unicode="&#x9f7;" horiz-adv-x="577" d="M393 2v1110h115v-1110h-115z" />
<glyph unicode="&#x9f8;" horiz-adv-x="911" d="M123 524v676q37 29 75 58.5t74 58.5q0 -115 1 -224.5t1 -224.5l-6 -186l-4 -119h4q43 78 82 135.5t74 96.5q104 123 233 123q197 0 197 -363l2 -416l-158 -94v500q0 240 -57 239q-43 0 -123 -110q-68 -96 -103.5 -147.5t-41.5 -61.5q-96 -113 -162 -113q-88 0 -88 172z " />
<glyph unicode="&#x9f9;" horiz-adv-x="681" d="M168 498q0 104 61.5 168.5t167.5 64.5q104 0 169 -64.5t65 -168.5t-64.5 -170t-169.5 -66q-106 0 -167.5 65.5t-61.5 170.5zM264 498q0 -137 131 -138q131 1 131 138q0 131 -131 131t-131 -131z" />
<glyph unicode="&#x9fa;" horiz-adv-x="989" d="M20 1503q0 33 10.5 45.5t24 10t26.5 -17.5t19 -38q16 -53 33 -105t43 -100q33 -59 83 -96t108.5 -53t121 -10t119.5 37q53 31 97.5 72.5t82 89.5t70.5 100.5t62 103.5q33 55 69.5 118.5t81.5 122t100.5 104.5t122.5 65q23 6 52.5 9t59.5 -3t56.5 -24.5t44.5 -55.5 q14 -29 9 -57.5t-21 -51t-40.5 -39t-51.5 -18.5q20 35 20 78t-37 72q-29 20 -57.5 21t-56 -11t-51 -33.5t-43.5 -42.5q-41 -45 -71 -97t-56.5 -107.5t-51 -113t-53.5 -110.5q-39 -80 -90 -154.5t-110.5 -134t-127 -96.5t-141.5 -42t-150.5 29t-154.5 117q-74 80 -113 194 t-39 222zM349 1455q1 50 33 91t91 41q68 2 101.5 -39t33.5 -91t-33.5 -92t-101.5 -42q-63 0 -94 41t-30 91z" />
<glyph unicode="&#x2000;" horiz-adv-x="1057" />
<glyph unicode="&#x2001;" horiz-adv-x="2115" />
<glyph unicode="&#x2002;" horiz-adv-x="1057" />
<glyph unicode="&#x2003;" horiz-adv-x="2115" />
<glyph unicode="&#x2004;" horiz-adv-x="705" />
<glyph unicode="&#x2005;" horiz-adv-x="528" />
<glyph unicode="&#x2006;" horiz-adv-x="352" />
<glyph unicode="&#x2007;" horiz-adv-x="352" />
<glyph unicode="&#x2008;" horiz-adv-x="264" />
<glyph unicode="&#x2009;" horiz-adv-x="423" />
<glyph unicode="&#x200a;" horiz-adv-x="117" />
<glyph unicode="&#x200c;" horiz-adv-x="0" d="M2 -578v2350h127v-2350h-127z" />
<glyph unicode="&#x200d;" horiz-adv-x="0" d="M2 -578v2350h492v-125h-365v-2225h-127z" />
<glyph unicode="&#x2010;" horiz-adv-x="690" d="M61 479q4 23 12.5 46.5t18.5 43.5h512l25 -24q-6 -23 -14.5 -48.5t-16.5 -41.5h-512z" />
<glyph unicode="&#x2011;" horiz-adv-x="690" d="M61 479q4 23 12.5 46.5t18.5 43.5h512l25 -24q-6 -23 -14.5 -48.5t-16.5 -41.5h-512z" />
<glyph unicode="&#x2012;" horiz-adv-x="690" d="M61 479q4 23 12.5 46.5t18.5 43.5h512l25 -24q-6 -23 -14.5 -48.5t-16.5 -41.5h-512z" />
<glyph unicode="&#x2013;" d="M61 479q4 23 12.5 46.5t18.5 43.5h785l22 -24q-4 -23 -11 -48.5t-18 -41.5h-784z" />
<glyph unicode="&#x2014;" horiz-adv-x="1568" d="M61 479q4 23 12.5 46.5t18.5 43.5h1393l22 -24q-4 -23 -12 -48.5t-16 -41.5h-1393z" />
<glyph unicode="&#x2018;" horiz-adv-x="468" d="M92 1118q0 39 13.5 84t40 90t63.5 86t86 72l43 -35q-43 -45 -63.5 -105.5t-20.5 -101.5q0 -45 26.5 -77.5t86.5 -34.5l16 -45q-10 -12 -39 -28.5t-63.5 -31t-67.5 -24t-51 -6.5q-35 29 -52.5 63.5t-17.5 93.5z" />
<glyph unicode="&#x2019;" horiz-adv-x="468" d="M88 1364q8 12 37 27.5t64.5 30t68.5 23.5t51 9q33 -31 50.5 -66t17.5 -92q0 -39 -13.5 -85t-39 -91t-63.5 -86t-85 -71l-45 34q43 45 63.5 105.5t20.5 101.5q0 45 -26.5 78t-84.5 37z" />
<glyph unicode="&#x201c;" horiz-adv-x="892" d="M92 1118q0 39 13.5 84t40 90t63.5 86t86 72l43 -35q-43 -45 -63.5 -105.5t-20.5 -101.5q0 -45 26.5 -77.5t86.5 -34.5l16 -45q-10 -12 -39 -28.5t-63.5 -31t-67.5 -24t-51 -6.5q-35 29 -52.5 63.5t-17.5 93.5zM514 1118q0 39 13.5 84t40 90t63.5 86t86 72l43 -35 q-43 -45 -63.5 -105.5t-20.5 -101.5q0 -45 26.5 -77.5t85.5 -34.5l17 -45q-10 -12 -39 -28.5t-63.5 -31t-67.5 -24t-51 -6.5q-33 29 -51.5 63.5t-18.5 93.5z" />
<glyph unicode="&#x201d;" horiz-adv-x="892" d="M88 1364q8 12 37 27.5t64.5 30t68.5 23.5t51 9q33 -31 50.5 -66t17.5 -92q0 -39 -13.5 -85t-39 -91t-63.5 -86t-85 -71l-45 34q43 45 63.5 105.5t20.5 101.5q0 45 -26.5 78t-84.5 37zM510 1364q8 12 36.5 27.5t64.5 30t69 23.5t51 9q33 -31 50.5 -66t17.5 -92 q0 -39 -13.5 -85t-39 -91t-63.5 -86t-85 -71l-43 34q41 45 62.5 105.5t21.5 101.5q0 45 -27.5 78t-85.5 37z" />
<glyph unicode="&#x2026;" horiz-adv-x="1370" d="M131 72q0 68 41 116t98 48q99 0 99 -113q0 -70 -39 -117t-99 -47q-53 0 -76.5 29.5t-23.5 83.5zM582 72q0 68 41 116t98 48q98 0 98 -113q0 -70 -39 -117t-98 -47q-53 0 -76.5 29.5t-23.5 83.5zM1030 72q0 68 41 116t98 48q101 0 101 -113q0 -70 -40 -117t-100 -47 q-100 0 -100 113z" />
<glyph unicode="&#x202f;" horiz-adv-x="423" />
<glyph unicode="&#x205f;" horiz-adv-x="528" />
<glyph unicode="&#x20ac;" d="M25 492q4 16 10 32.5t10 32.5h580l24 -22l-24 -68h-580zM53 711q4 16 10.5 32.5t12.5 32.5h579l25 -22l-25 -68h-579zM135 561q0 166 36 292t101.5 211t157.5 128t203 43q100 0 160.5 -29.5t111.5 -70.5q6 -4 -3 -19.5t-24.5 -35t-33 -38t-29.5 -30.5l-35 6 q-25 23 -47 42t-48 33.5t-58.5 22.5t-77.5 8q-41 0 -86 -21.5t-83 -79.5t-63.5 -160.5t-25.5 -264.5q0 -141 25.5 -238.5t68.5 -157t99.5 -86t115.5 -26.5q61 0 123.5 37t165.5 129q10 -4 20.5 -21.5t16.5 -23.5q-59 -68 -108.5 -115t-95.5 -74.5t-92 -40t-102 -12.5 q-82 0 -153.5 35t-124.5 107.5t-84 184.5t-31 265z" />
<glyph unicode="&#x2122;" horiz-adv-x="1144" d="M59 1161q0 16 4.5 50t8.5 49h243l11 -41h-203q-12 0 -20.5 -11.5t-24.5 -52.5zM174 807v24q35 8 47 14.5t12 12.5v363q0 4 -11 11t-40 13v15h174v-15q-51 -12 -51 -24v-363q0 -4 11.5 -11t48.5 -16v-24h-191zM256 1219l12 41h195l12 -9q-2 -18 -4 -49t-8 -47h-17 q-8 31 -14 47.5t-22 16.5h-154zM502 807v24q51 8 51 23l4 383l53 8l-4 -391q0 -14 51 -23v-24h-155zM506 1235v25h115q8 0 11 -5.5t13 -25.5l158 -328q4 -10 6 -29.5t-8 -64.5h-29l-176 381q-16 33 -43 40t-47 7zM786.5 870.5q-4.5 18.5 1.5 30.5l150 328q10 23 13 27t12 4 h114v-25q-27 0 -60.5 -12.5t-45.5 -40.5l-170 -375q-10 45 -14.5 63.5zM909 807v24q55 10 56 23l-4 369l69 20l4 -389q0 -14 51 -23v-24h-176z" />
<glyph unicode="&#x2212;" horiz-adv-x="839" d="M61 530q10 43 31 88h662l24 -24q-4 -20 -13 -46t-17 -42h-662z" />
<glyph unicode="&#x25cc;" horiz-adv-x="1060" d="M84 623q0 25 2 48t8 50l103 -21q-4 -18 -6.5 -39.5t-2.5 -39.5t2.5 -39t6.5 -37l-103 -21q-6 29 -8 52.5t-2 46.5zM147 391q20 16 43 28.5t41 26.5q23 -31 50.5 -59.5t60.5 -48.5l-59 -82q-41 25 -76 59.5t-60 75.5zM147 854q53 90 136 137l59 -82q-66 -43 -111 -110 q-18 14 -40.5 26.5t-43.5 28.5zM434 186q4 27 8 51.5t9 51.5q20 -8 38.5 -9t38.5 -1q37 0 80 12l21 -105q-25 -4 -51.5 -7t-49.5 -3q-37 0 -94 10zM434 1057q49 14 94 14q23 0 47.5 -3t53.5 -11l-21 -101q-23 4 -41 7.5t-39 3.5q-20 0 -38.5 -3t-38.5 -8q-4 27 -8.5 50.5 t-8.5 50.5zM719 340q33 23 61.5 48.5t48.5 57.5l84 -57q-29 -43 -62.5 -75.5t-72.5 -57.5q-16 20 -30.5 41.5t-28.5 42.5zM719 907l59 82q82 -53 135 -133l-86 -57q-25 35 -50 60.5t-58 47.5zM862 545q10 41 10 76t-10 79l103 21q12 -59 12 -98q0 -20 -3 -46t-9 -53z" />
<glyph unicode="&#xe000;" horiz-adv-x="931" d="M0 0v932h932v-932h-932z" />
<glyph horiz-adv-x="0" />
<glyph horiz-adv-x="421" d="M-197 1319h578l115 -115h-74q-158 -6 -178 -221q-2 -156 30 -317q18 -104 28.5 -182t10.5 -132q0 -63 -28.5 -127.5t-79.5 -124.5q-47 -41 -105.5 -73.5t-117.5 -51.5l-66 50q57 20 110.5 49.5t88.5 72.5q49 61 49 191q0 41 -11.5 99.5t-33.5 133.5q-45 150 -45 234 q-14 223 178 399h-334z" />
<glyph horiz-adv-x="1333" d="M-135 1319h1386l111 -115h-543v-90h27q143 -10 262 -119q121 -111 121 -254q0 -166 -129 -168q92 -100 88 -221q-18 -145 -152 -151q-49 0 -89 31.5t-40 78.5q0 39 34 62.5t77 23.5q37 0 88 -57l2 12q0 47 -19.5 86t-52 68t-75.5 46t-91 23l-51 3v-680q-10 8 -23.5 16 t-23.5 14v-2q-86 156 -210 249t-271 104h2l-137 176q27 18 54.5 34.5t55.5 32.5h-2l74 43q-29 23 -70 32t-82 11q-74 90 -149 178q143 100 317 185.5t351 138.5v94h-728zM262 719q74 -35 160 -105q72 33 141.5 63t141.5 56v201q-115 -35 -225.5 -88t-217.5 -127zM354 387 q213 -43 351 -244v422q-70 -23 -158 -67.5t-193 -110.5zM819 737q59 -10 104.5 -33.5t80.5 -58.5l-9 41q0 94 68 94q55 0 76 -47q8 13 8 17q-8 43 -35 78.5t-80 68.5q-82 47 -184 51h-29v-211z" />
<glyph horiz-adv-x="1036" d="M-119 1319h885q12 31 12 49q0 76 -123 76h-37.5t-42.5 -4q-10 0 -17 -1t-11 -1h-197q-307 0 -307 180q0 53 11.5 97t35.5 73q20 -10 35.5 -20.5t36.5 -20.5q-47 -25 -47 -74q0 -106 223 -106h33.5t42.5 2q6 0 11 2t11 2l76 4q322 0 322 -207q0 -14 -1.5 -26.5t-3.5 -24.5 h99l114 -115h-413l2 -49q63 -10 117.5 -36.5t92.5 -69.5t59.5 -99.5t21.5 -126.5q0 -72 -31 -121q-39 -57 -107 -57q-109 4 -127 98q0 49 24 88t67 39q72 -10 79 -65q12 4 20.5 14t6.5 39q-43 164 -233 182q2 -145 -70 -311q-8 -20 -44 -85.5t-99 -176.5q-74 -139 -74 -209 q0 -121 90 -121q57 0 172 64q55 33 85 64.5t40 60.5h-14q-55 0 -98.5 30.5t-43.5 85.5q0 59 42 106.5t100 47.5q203 0 202 -172q0 -156 -143 -274q-141 -117 -293 -117q-264 0 -264 203q0 133 168 358q-31 96 -98 119q-27 10 -65 13t-60 3l-111 160q94 86 215 154.5 t254 107.5v53h-516zM227 860q170 -72 181 -203q47 63 73 158q31 94 31 170q-2 2 -2 8q-2 4 -2 9.5t-2 15.5l-2 2q-170 -55 -277 -160z" />
<glyph horiz-adv-x="1585" d="M-150 1319h1657l109 -115h-1647zM57 1110l82 -43l131 -328q45 -104 90.5 -181t96.5 -128q137 -133 323 -133q98 0 156.5 49t58.5 143q0 51 -55 109q-51 -45 -96 -45q-59 0 -97 39t-38 98q0 51 35.5 91t82.5 40q51 0 103 -28q61 37 61 102q0 49 -59 86q-59 29 -113 29 q-76 0 -149.5 -35t-108.5 -96q68 -35 68 -113q0 -100 -103 -100q-63 0 -104 43t-41 108q0 139 135 242q129 94 268 94q154 0 215 -84q55 -72 60 -235q121 131 213 131t155 -78q66 -82 66 -174q0 -88 -53 -170q-57 -74 -154 -84q-27 -2 -52.5 3t-45 23.5t-30.5 47t-11 53.5 q-2 47 24 78q35 33 80 30q55 0 90 -84h11q37 0 43 86q0 72 -38 117t-106 45q-78 0 -164 -74q-37 -35 -59 -72.5t-22 -76.5l2 -14q82 -84 82 -206t-95 -208q-47 -45 -102 -65.5t-121 -20.5q-442 0 -715 989z" />
<glyph horiz-adv-x="1583" d="M-150 1319h1657l109 -115h-1647zM57 1110l82 -43l131 -328q45 -104 90.5 -181t96.5 -128q137 -133 323 -133q98 0 156.5 49t58.5 143q0 51 -55 109q-51 -45 -96 -45q-59 0 -97 39t-38 98q0 51 35.5 91t82.5 40q51 0 103 -28q61 37 61 102q0 49 -61 82h2q-59 33 -113 33 q-76 0 -149.5 -35t-108.5 -96q68 -35 68 -113q0 -100 -103 -100q-63 0 -104 43t-41 108q0 139 135 242q129 94 268 94q154 0 215 -84q55 -72 60 -235q121 131 213 131t155 -78q66 -82 66 -174q0 -88 -57 -168q-59 -86 -150 -86q-25 0 -50.5 9t-43.5 26.5t-30.5 42 t-12.5 49.5q-2 41 22 78q43 35 80 30q55 0 90 -84h11q43 -2 43 86q0 72 -38 117t-106 45q-78 0 -164 -74q-37 -35 -59 -72.5t-22 -76.5l2 -14q82 -84 82 -195q0 -25 -3.5 -46.5t-7.5 -41.5v-637q-8 8 -34.5 40t-69.5 83q-29 33 -67 53.5t-87 24.5h-205q-205 0 -317 47 q-178 74 -178 272q0 68 41 203l43 -43q-16 -23 -17 -76q0 -182 174 -219q92 -4 161 -10t116 -13q231 -23 334 -176l4 2v304q-88 -72 -205 -72q-442 0 -715 989z" />
<glyph horiz-adv-x="1576" d="M-129 1319h1616l108 -115h-1605zM57 1110l82 -43l131 -328q45 -104 90.5 -181t96.5 -128q137 -133 323 -133q98 0 156.5 49t58.5 143q0 51 -55 109q-51 -45 -96 -45q-59 0 -97 39t-38 98q0 51 35.5 91t82.5 40q51 0 103 -28q61 37 61 102q0 49 -61 82h2q-59 33 -113 33 q-76 0 -149.5 -35t-108.5 -96q68 -35 68 -113q0 -100 -103 -100q-63 0 -104 43t-41 108q0 139 135 242q129 94 268 94q154 0 215 -84q55 -72 60 -235q121 131 213 131t155 -78q66 -82 66 -174q0 -88 -57 -168q-59 -86 -150 -86q-25 0 -48.5 11t-43.5 28.5t-32.5 40 t-12.5 47.5q0 23 22 78v-2q35 33 80 32q55 0 90 -84h11q43 -2 43 86q0 72 -38 117t-106 45q-78 0 -164 -74q-37 -35 -59 -72.5t-22 -76.5l2 -14q82 -84 82 -195q0 -100 -54 -174q14 -23 15 -33v-643q-66 29 -123 119q-35 49 -60.5 80.5t-46.5 48.5q-39 29 -100.5 44 t-132.5 17l-111 152l160 106q-352 137 -580 967zM657 -8q164 -37 287 -197v371q-16 -12 -29.5 -17.5t-23.5 -9.5h-2z" />
<glyph horiz-adv-x="1343" d="M-129 1319h1368l119 -115h-537v-94l27 4q78 -4 151.5 -38t137.5 -99q129 -139 129 -299q0 -49 -11.5 -93t-35.5 -81q-53 -86 -146 -86q-57 0 -104 41t-47 100q0 55 38.5 92t96.5 37q74 0 112 -59q4 8 5.5 12t3.5 8l2 4q0 117 -95 213q-90 100 -206 90l-60 -4v-983l-39 15 l-82 206q-68 143 -217 144q-2 -2 -8 -2q-4 0 -12 -1t-21 -1q49 -29 49 -97q0 -141 -151 -141q-35 0 -64.5 13.5t-53 37t-37 53t-13.5 64.5q0 115 67.5 174.5t182.5 59.5q225 0 321 -287h4v24q0 365 -491 426l-160 199q176 98 327.5 161.5t280.5 90.5v96h-714zM322 809 q240 -35 380 -244v385q-180 -27 -380 -141z" />
<glyph horiz-adv-x="1308" d="M-121 1319h1364l119 -115h-180v-1233q-6 2 -13.5 6.5t-13.5 6.5h2q-51 51 -117 157q-63 98 -100 135q-33 29 -81 50.5t-109 38.5q0 -76 -51.5 -122t-129.5 -46q-68 0 -117 49t-49 116q0 61 44.5 108.5t115.5 61.5q-160 195 -375 201q-31 43 -61.5 91t-58.5 91 q117 86 240.5 141.5t244.5 82.5v65h-559zM274 868q177 -83 281 -235v364q-74 -23 -144.5 -53.5t-136.5 -75.5zM662 530q229 -33 405 -325l4 2v997h-409v-53q135 -18 227 -127q41 -55 62.5 -114.5t21.5 -114.5q0 -59 -33 -119q-41 -61 -104 -62q-49 0 -89 33t-45 82 q-2 70 39 100q37 23 76 19q37 -4 57 -39q14 -10 17 16q0 68 -60 123q-55 51 -124 56h-45v-474z" />
<glyph horiz-adv-x="1646" d="M-127 1319h1679l111 -115h-1673zM84 594q0 92 25.5 167t72.5 132l43 -45q-23 -31 -36 -57.5t-17 -42.5q-6 -35 -7 -59.5t-1 -47.5q2 -170 121 -240q88 -47 260 -47h40.5t59.5 2t58.5 2h37.5q72 0 147 -16t140 -66v660q0 88 -78 88q-80 0 -180 -106q-47 -49 -80 -96.5 t-47 -92.5q35 8 70 8q51 -4 73.5 -44t22.5 -87q0 -131 -152 -131q-199 0 -198 232q8 141 172 286q172 156 305 156q53 0 129 -66q78 -61 78 -112v-213q35 47 104 84q76 35 139 32q92 0 160 -81q62 -83 64 -181q0 -84 -47 -141t-133 -57q-61 0 -107 28q-51 43 -51 103 q0 37 29.5 65.5t66.5 28.5q70 0 113 -72q33 8 32 49q0 33 -15 62t-40.5 50.5t-58.5 32.5t-68 11q-119 0 -188 -127v-676l-70 64v-2q-55 193 -211 178q-57 -6 -137 -16q-109 -18 -157 -21.5t-81 -3.5q-195 0 -301 119q-102 113 -102 307z" />
<glyph horiz-adv-x="1351" d="M-129 1319h1391l118 -115h-534v-74q199 8 321 -155q59 -74 89 -156t30 -168q0 -43 -14.5 -82t-40 -68.5t-60 -47t-75.5 -17.5q-29 0 -55.5 11.5t-47 31t-34 45t-13.5 54.5q0 55 38 92t95 37q66 0 115 -62l10 27q0 113 -94 213q-96 102 -266 76v-1065l-45 41 q-18 82 -56 143q-47 78 -110 78q-82 0 -72 -95l6 -63q-27 4 -49 11t-49 34q-2 49 -13.5 83t-27.5 58q-45 61 -111 62q-27 0 -54 -9.5t-50 -26.5t-37 -43t-14 -58q0 -90 57 -123q0 53 30 91t68 38q104 0 105 -117q0 -123 -143 -123q-47 0 -88 16.5t-74 47t-51.5 73.5 t-18.5 95q0 53 18.5 100t51.5 81t74.5 53t91.5 19q143 0 219 -198q-2 127 96 127q84 0 139 -133v114q-33 57 -72.5 104.5t-84.5 88.5q-78 70 -166 110.5t-183 51.5l-159 180q293 209 663 305v92h-747zM301 762q287 -100 428 -311l2 493q-102 -23 -209.5 -70t-220.5 -112z " />
<glyph horiz-adv-x="1339" d="M-111 1319h1346l111 -115h-523v-94h27q176 0 303 -152q53 -74 84 -156.5t31 -168.5q0 -43 -14.5 -82t-39 -68.5t-59.5 -47t-76 -17.5q-59 0 -105 41t-46 100q0 55 39 92t94 37q70 0 115 -59q10 10 10 24q0 119 -96 213q-84 88 -224 88q-6 0 -11 -1t-9 -1h-23v-1054 q-10 8 -23.5 16t-23.5 14v-2q-86 158 -210 250t-271 103q-66 90 -133 176l114 71l64 39q-31 16 -78 24.5t-94 10.5l-125 186q141 100 314 185.5t352 138.5v94h-707zM268 719q76 -35 158 -105q66 33 134.5 63t148.5 56v201q-221 -66 -441 -215zM358 387q213 -43 351 -244v422 q-72 -23 -157 -67.5t-194 -110.5z" />
<glyph horiz-adv-x="1554" d="M-131 1319h1597l117 -115h-532v-190q31 6 82 6q133 0 235 -86q100 -88 100 -215q-4 -92 -41.5 -146.5t-103.5 -66.5q-68 2 -121 31.5t-63 89.5q-2 53 29.5 87t70.5 34q76 4 135 -72q18 33 19 67q0 66 -90 109q-66 27 -144 27q-59 0 -102 -17v-846l-53 62v-2 q-35 98 -58.5 160.5t-40.5 91.5v-2q-70 123 -196 182q-39 -113 -158 -113q-61 0 -105.5 42t-44.5 106q0 76 59.5 116.5t139.5 32.5q12 31 12 66q0 68 -47 120t-114 52q-16 0 -30.5 -7.5t-31.5 -19.5q0 -59 -44 -105t-103 -46q-66 0 -115 43t-47 129q10 92 106 135 q33 10 62 12l4 14q0 12 -10.5 31t-24.5 36t-30.5 31.5t-28.5 20.5h-170zM283 1204q10 -20 24.5 -51t30.5 -78q25 -6 41 -12t33 -12q61 -23 119.5 -64t107.5 -96q47 -59 74.5 -127t31.5 -135q137 -88 193 -232h4v459q-135 12 -244 111q-102 100 -120 237h-295zM688 1151 q0 -154 193 -154h27.5t31.5 4v203h-223q-29 0 -29 -53z" />
<glyph horiz-adv-x="1564" d="M-119 1319h1581l117 -115h-528v-139h82q133 0 235 -86q100 -88 100 -215q0 -100 -43 -157.5t-120 -69.5q-150 23 -150 145q0 47 31 79t78 32q78 0 110 -72q18 25 19 67q0 70 -88 109q-70 27 -146 27q-59 0 -102 -17v-925q-49 51 -84 112q-47 121 -80 160q-70 76 -193 76 h-6q-4 0 -11 -1t-17 -3q39 -51 39 -109q0 -51 -36 -84t-85 -33q-160 0 -178 160q18 205 241 205q92 0 174 -53.5t127 -135.5h4v64q0 178 -243 293q-41 -115 -158 -115q-29 0 -56.5 11.5t-48 32t-33 46t-12.5 56.5q0 154 199 153l14 21q0 61 -48 99t-115 38 q-35 -4 -46.5 -11.5t-15.5 -17.5q0 -135 -121 -135q-31 0 -59.5 10t-52 28.5t-38 43.5t-14.5 53q0 61 43 105q14 16 39 30.5t62 32.5l4 16q0 35 -71.5 53.5t-192.5 20.5zM279 1204q27 -23 45 -43t28 -47q98 -25 175 -62.5t132 -90.5q84 -72 86 -213q76 -43 123 -94.5 t70 -110.5h4v358q-139 10 -240 88q-113 84 -124 215h-299zM688 1151q0 -109 133 -109h45q39 0 74 15v147h-223q-29 0 -29 -53z" />
<glyph horiz-adv-x="1628" d="M-127 1319h1647l118 -115h-213v-1276q-14 12 -28.5 21.5t-28.5 19.5v-2q-41 88 -74.5 148.5t-64.5 93.5q-47 51 -108.5 87t-176.5 44q2 -12 3 -24.5t-1 -22.5q0 -27 -12 -51.5t-33.5 -44t-49.5 -30.5t-56 -11q-29 0 -55.5 13t-46 34.5t-32 49.5t-12.5 56q0 53 34 99.5 t128 64.5q-45 125 -172 174q6 -70 -41 -102.5t-113 -26.5q-49 6 -79.5 46t-28.5 89q0 63 43 102.5t104 30.5q18 37 19 64q0 51 -38 91t-89 38l-35 -2q4 -10 4 -23.5v-23.5q0 -53 -46 -86t-103 -33q-53 0 -94.5 37t-41.5 92q0 72 39 117q47 47 109 61q-31 90 -148 86h-110z M297 1204q12 -12 45 -80q39 -18 76 -38.5t67 -47.5q70 -53 110 -122.5t48 -155.5q27 -18 68 -52t96 -96l4 2v316q-111 18 -196 92t-117 182h-201zM596 1186q0 -51 57 -84q49 -31 103 -31q29 0 55 16v3v114h-197q-18 -4 -18 -18zM924 479q250 -55 387 -266v991h-387v-125 q41 8 69 8q117 0 189.5 -74.5t72.5 -191.5q0 -66 -45 -125q-43 -57 -102 -57q-49 0 -88 38t-39 87q0 43 34 73.5t79 30.5q59 0 92 -43q-43 135 -160 136q-49 0 -102 -21v-461z" />
<glyph horiz-adv-x="1615" d="M-119 1319h1581l117 -115h-528v-194q18 6 38.5 8t43.5 2q133 0 235 -86q100 -88 100 -215q0 -205 -145 -205q-184 0 -184 125q0 33 24.5 67.5t57.5 34.5q123 0 153 -67q6 35 12 51l7 18q0 72 -88 111q-61 25 -146 25q-59 0 -102 -17v-885q-43 12 -117 97q-63 68 -223 67 l-101 -4q-31 -2 -51 -2h-33q-406 0 -405 344q0 88 20 158l68 -47q-4 -16 -6 -28.5t-4 -20.5t-2 -17q0 -180 155 -219l334 -33q100 -18 180 -70t123 -132h4q0 141 -77.5 256.5t-212.5 181.5q-39 -113 -158 -113q-59 0 -104.5 43t-45.5 105q0 150 199 149q4 16 5 26.5t3 20.5 q2 8 4 19q0 33 -12 64.5t-33.5 55t-49.5 38t-60 14.5q-25 -8 -43.5 -14.5t-24.5 -12.5q0 -59 -44 -105t-103 -46q-152 8 -154 166q14 133 164 165q0 41 -27.5 70t-77.5 41q-16 4 -64 7t-95 3zM285 1204l53 -121q86 -12 155.5 -48t122.5 -95q123 -119 129 -311 q139 -86 197 -232v459q-139 12 -246 111q-100 100 -118 237h-293zM688 1151q0 -154 193 -154q25 0 59 13v194h-223q-29 0 -29 -53z" />
<glyph horiz-adv-x="1564" d="M-119 1319h1581l117 -115h-528v-168q16 4 36.5 6t45.5 2q137 0 231 -69q104 -84 104 -211q0 -223 -145 -223q-164 0 -164 123q0 45 29 78.5t72 33.5q72 0 114 -78l19 66q0 68 -82 108q-66 37 -133 37q-16 0 -48 -6t-79 -22v-1065q-23 12 -52 45v-2q-25 117 -118 174 t-242 61l-98 139q76 61 172 112.5t205 88.5q-109 152 -209 170q-37 -115 -158 -115q-59 0 -104.5 39t-45.5 95q0 164 199 163l12 35q0 129 -125 129q-47 0 -98 -22q0 -59 -44 -100.5t-101 -41.5q-59 0 -99.5 47.5t-40.5 108.5q0 109 144 150l4 18q0 76 -113 90q-33 0 -76 2 t-75 2zM283 1204l63 -110q143 -10 270 -103q127 -102 129 -268q143 -84 191 -209h4v367q-137 18 -242 98q-53 45 -81.5 102.5t-38.5 122.5h-295zM688 1151q0 -43 15.5 -68.5t48.5 -42.5q45 -16 129 -16q25 0 59 12v168h-223q-29 0 -29 -53zM715 190q147 -31 225 -114v215 q-47 -16 -102.5 -41t-122.5 -60z" />
<glyph horiz-adv-x="1611" d="M-125 1319h1628l119 -115h-197v-1351q-23 23 -53.5 52t-52.5 52v199q-31 23 -71 43t-79 34q-31 12 -64.5 19.5t-64.5 7.5q-80 0 -219 -115q-141 -113 -211 -112q-70 0 -149 67q-37 33 -63.5 70t-39.5 72l62 63q8 -47 50 -82t89 -35q29 0 56.5 8.5t56.5 22.5q70 43 69 90 q0 111 -221 248q-170 92 -303 115l-96 174q133 90 296 164.5t347 124.5v69h-770zM358 801q86 -20 228 -142q53 -53 97 -104t81 -98v520q-76 -12 -176.5 -56t-229.5 -120zM866 358q104 43 164 43q113 0 285 -127v930h-449v-71q68 -18 132.5 -51t113.5 -81.5t80 -109 t31 -129.5q0 -59 -23 -115q-20 -35 -50 -58.5t-75 -31.5q-78 0 -114.5 34t-36.5 79q0 115 110 114q27 0 49.5 -4t38.5 -18q0 96 -63.5 149.5t-192.5 75.5v-629z" />
<glyph horiz-adv-x="1153" d="M18 471q0 35 11.5 86t29.5 117l43 -43q-14 -23 -14 -78q0 -186 174 -219q92 -10 159.5 -13.5t115.5 -9.5q117 -10 199.5 -53t133.5 -121l4 2v54q-2 12 -6 21t-10 22q-39 68 -96 122t-135 101h2q-137 82 -303 98l-195 238q23 -4 46.5 -7.5t47.5 -3.5q57 0 122 15.5 t130 44.5q80 35 124 77t44 89q0 74 -59 125q-188 -188 -377 -189q-70 0 -121 45t-51 113q0 49 36 88t87 39q104 0 110 -107q35 6 71 25.5t73 48.5q4 2 37.5 36t72.5 71q66 -55 107 -92t51 -48q82 -88 82 -182q0 -100 -80 -192q-80 -88 -184 -117q250 -125 366 -324v1182 l64 -41q0 -35 4 -70t8 -47q23 -49 117 -55l117 -115h-199v-1253q-10 6 -33.5 36.5t-71.5 86.5q-59 68 -153 73h-203q-98 0 -180 13.5t-139 36.5q-82 39 -130.5 107.5t-48.5 166.5z" />
<glyph horiz-adv-x="1148" d="M37 1128q0 51 36 89t87 38q104 0 110 -104q68 12 129.5 45t124.5 109q66 -55 107 -92t51 -48q82 -88 76 -182q0 -43 -21.5 -84t-56.5 -76t-82 -61.5t-98 -40.5q250 -125 366 -303v1114l64 -41q0 -35 4 -70t8 -47q23 -49 96 -55l117 -115h-178v-858v-590q-55 27 -98 88 q-41 63 -55.5 83t-55.5 55q-45 31 -100.5 43t-112.5 12l-98 137q166 117 319 217q-61 61 -149 115q-135 82 -301 98l-195 240q45 -12 94 -13q115 0 252 60q162 68 162 119q6 74 -53 125q-188 -162 -377 -162q-70 0 -121 44t-51 111zM637 131q115 -23 242 -176v278 q-4 20 -10.5 34t-10.5 20q-119 -72 -221 -156z" />
<glyph horiz-adv-x="1253" d="M55 1198l82 -53q33 -160 88.5 -303.5t120.5 -247.5q186 -295 473 -295q37 2 74 10t66.5 24.5t47 43t17.5 63.5v19.5t-4 19.5q-47 -35 -90 -35q-68 0 -110 45.5t-44 104.5q-2 51 30 92t97 43q39 0 66.5 -9t39 -17.5t13.5 -8.5q59 39 59 78q0 59 -39 152q-43 94 -92 120 l-116 -184q-23 125 -79.5 197.5t-156.5 81.5q-125 0 -178 -101q57 23 94 23q70 0 127 -41q61 -49 61 -115q0 -125 -198 -295l-144 121q43 29 75 52.5t48 37.5q78 66 97 119q0 31 -33 31q-18 0 -44 -8.5t-53.5 -17.5t-55 -17t-48.5 -8q-88 0 -88 97t86 182t182 85 q49 0 96.5 -16.5t88.5 -47t70.5 -72.5t45.5 -91l86 260q261 -459 261 -590q0 -82 -130 -168q57 -76 58 -174q0 -129 -82 -196.5t-215 -67.5q-160 0 -298 102.5t-241 288.5q-78 145 -132 317t-79 369z" />
<glyph horiz-adv-x="1187" d="M154 1010q0 131 122 215q109 76 242 75q86 0 150.5 -28.5t111.5 -81.5q35 -41 68 -110.5t70 -168.5h4l-19 301q-6 199 -6 326l66 -65l-7 -33q0 -125 105 -121h16h19l112 -115h-209v-1370q-33 39 -65.5 78t-63.5 78l2 256q-12 47 -32.5 96t-48.5 90q-76 119 -199 119 q-147 0 -203 -145l76 18q39 8 76 8q63 0 98 -55q43 -43 35 -107.5t-48 -140.5t-106 -172l-112 125q80 59 126 110.5t46 92.5q0 27 -22.5 43t-39.5 16q-37 0 -98 -41q-61 -43 -88 -43q-23 0 -42.5 12.5t-34.5 32t-24.5 43t-9.5 47.5q0 51 27.5 104.5t66.5 92.5q18 12 37 26.5 t39 22.5l-33 37q49 37 93 82q98 104 98 141q0 49 -62 49q-16 0 -42.5 -10t-65.5 -35q-76 -45 -105 -45q-25 0 -46 14.5t-37.5 36t-26.5 48t-10 51.5zM307 1004q39 18 75 25t67 7q88 0 149 -45q63 -53 64 -139q0 -37 -17.5 -85t-54.5 -103q88 -12 170 -78q78 -66 110 -137h4 l3 335q0 63 -25 129t-70 125q-98 133 -219 133q-182 0 -256 -167z" />
<glyph horiz-adv-x="1812" d="M35 991q0 137 110 230q115 96 250 96q147 0 275 -105q125 -100 159 -247v354h891l113 -115h-887v-508q123 129 255 219.5t274 141.5l206 -156q-78 -154 -117.5 -293t-39.5 -266q0 -117 41 -352l-74 39q-35 160 -54.5 282.5t-19.5 208.5q0 68 9.5 143.5t29.5 159.5 q-139 -47 -263 -151.5t-228 -245.5l-160 176q4 23 5 50.5t1 52.5q0 78 -22.5 159.5t-66.5 148t-109.5 109.5t-149.5 43q-182 0 -256 -178q66 45 141 45q59 0 112.5 -27.5t84.5 -74.5q12 -18 18 -44t6 -52q0 -55 -19.5 -107.5t-51 -103t-70.5 -97.5t-76 -90l-133 150 q113 86 174.5 155.5t61.5 118.5q0 29 -23.5 50.5t-50.5 21.5q-35 0 -113 -53q-80 -51 -102 -52q-51 0 -92 54q-39 51 -39 110z" />
<glyph horiz-adv-x="1452" d="M68 991q0 141 131 234q113 80 266 80q182 0 283 -119q74 -86 149 -305h4l-22 331q-4 100 -7.5 180.5t-3.5 145.5l68 -65l-8 -33q0 -125 104 -125q33 0 76 1t87 1t86 1t77 1l112 -115h-497v-477q111 53 165 68.5t74.5 14.5t32.5 -11q55 -35 45 -164q-10 -72 -22.5 -169 t-14.5 -202q0 -78 6.5 -147.5t22.5 -134.5l-113 75v-2q-14 53 -20 119t-6 123q2 86 12 164t14 153q2 29 -14 32t-44 -6t-138 -69v-677l-39 26q-41 57 -94.5 109.5t-110.5 81.5q-166 76 -205 80t-69 4q-33 45 -68 90l-70 90q309 207 533 303l2 70q0 68 -27.5 138t-74.5 136 q-106 145 -240 145q-199 0 -277 -184q133 82 195 82q47 0 89 -13.5t75 -35.5q29 -25 43 -58.5t16 -62.5q-14 -68 -94 -163t-221 -208l-121 156q51 29 97 58.5t91 64.5q57 35 88 64.5t31 47.5q0 55 -51 56q-29 0 -135 -72q-113 -72 -139 -72q-47 0 -93 58q-37 51 -36 106z M512 328q102 -37 190.5 -98.5t141.5 -131.5l4 359v59q-168 -78 -336 -188z" />
<glyph horiz-adv-x="1466" d="M68 991q0 141 131 234q113 80 266 80q182 0 283 -119q74 -86 149 -305h4l-22 331q-4 100 -7.5 180.5t-3.5 145.5l68 -65l-8 -33q0 -125 104 -125q33 0 76 1t87 1t86 1t77 1l112 -115h-497v-481l84 41q27 12 55.5 23.5t54 17.5t46 5t32.5 -11q31 -31 36 -58.5t7 -62.5 v-21.5t2 -21.5q-8 -70 -16 -169t-8 -190q0 -66 4 -129t12 -112l-113 100v-2q-8 39 -11 85t-3 93q0 63 4 129t8 131q0 12 1 22.5t1 20.5q2 29 -14 34t-44 -4t-64.5 -31.5t-73.5 -49.5v-952l-39 29q-41 59 -81 107t-75 73q-70 51 -168 51h-28.5t-30.5 -4l-100 139l270 154 q-14 14 -44 26.5t-66 22.5t-72.5 16t-61.5 6q-33 45 -67.5 90.5t-69.5 90.5q49 35 117.5 74.5t140.5 76.5t138.5 68t113.5 47l2 70q0 68 -27.5 138t-74.5 136q-106 145 -240 145q-199 0 -277 -184q133 82 195 82q47 0 89 -13.5t75 -35.5q29 -25 43 -58.5t16 -62.5 q-14 -68 -94 -163t-221 -208l-121 156q51 29 97 58.5t97.5 64.5t82 64.5t30.5 47.5q0 55 -51 56q-29 0 -135 -72q-113 -72 -139 -72q-47 0 -93 58q-37 51 -36 106zM535 354q104 -27 175.5 -82t133.5 -116l4 301v59q-66 -31 -144.5 -70.5t-168.5 -91.5zM627 -45 q35 -10 67.5 -19.5t63 -24.5t59 -37.5t53.5 -57.5v239q-10 10 -17 12.5t-17 10.5z" />
<glyph horiz-adv-x="1470" d="M90 991q0 141 131 234q59 41 126 60.5t140 19.5q182 0 285 -119q70 -82 148 -305l-17 331q-4 100 -7 180.5t-3 145.5l65 -65l-8 -33q0 -125 107 -123h323l115 -113h-500v-477q82 55 137.5 69.5t94.5 14.5q23 0 41 -12q29 -20 41 -52t12 -65q0 -55 -2 -89t-5 -66.5 t-5 -76.5t-2 -120q0 -18 1 -65.5t2 -99.5t4 -100.5t7 -68.5l-117 100q-8 53 -10 112.5t-2 121.5v146.5t2 137.5q-8 35 -39 29q-18 0 -39.5 -10t-44 -23.5t-42 -26t-34.5 -20.5v-817q-8 6 -30.5 27.5t-73.5 83.5q-57 82 -154 90h-151q-74 0 -125 1t-111 25q-178 74 -178 273 q0 68 41 203l41 -52q-16 -49 -12 -116q0 -133 176 -170q66 -8 136.5 -6.5t153.5 -19t169 -112.5l-5 90q-39 63 -120 109q-55 29 -121 43t-129 16l-140 181q129 82 255 149.5t255 120.5q-2 117 -30.5 194.5t-73.5 145.5q-104 145 -236 145q-199 0 -274 -184q133 82 193 82 q47 0 89 -13.5t74 -33.5q29 -27 44.5 -47.5t17.5 -57.5q-16 -86 -96 -173t-222 -193l-118 133l188 123q57 35 88 64.5t31 47.5q0 55 -53 56q-27 0 -136 -72t-139 -72q-45 0 -90 58q-39 51 -39 106zM559 354q201 -51 313 -176v338q-88 -35 -165.5 -76t-147.5 -86z" />
<glyph horiz-adv-x="1136" d="M29 1034q0 133 121 211h-3q106 61 273 62q154 0 272 -107q121 -106 156 -246h4v584l66 -65q-4 -10 -4.5 -15.5t-2.5 -9.5q-2 -6 -2 -8q0 -137 142 -121l112 -115h-207v-1319q-10 4 -21 10.5t-22 10.5l-26 141q-23 80 -43.5 137.5t-40.5 94.5q-82 143 -252 143l-16 -4 q-16 -4 -37 -10q90 -78 90 -162q0 -61 -39 -108.5t-103 -47.5q-84 0 -139 50t-55 134q0 123 77 195t203 72q104 0 195 -52h-2q92 -59 123 -153h4v282q0 115 -23.5 207.5t-64.5 161.5q-104 170 -320 170q-193 2 -247 -119q55 37 153 37q117 0 180.5 -47t63.5 -137 q0 -88 -86 -176t-248 -172q-23 45 -44 91t-44 93q14 4 53 19.5t101 44.5q152 78 151 104q0 90 -65 90q-29 0 -63 -13.5t-75 -35.5q-80 -49 -114 -49q-23 0 -47.5 13t-42.5 36q-41 53 -41 98z" />
<glyph horiz-adv-x="1427" d="M49 991q0 66 26.5 123t74.5 100q106 88 241 89q309 0 457 -304h4v539l66 -65q-4 -10 -4.5 -15.5t-2.5 -9.5q-2 -6 -2 -8q0 -121 144 -121h272l113 -115h-201v-1220q-4 2 -13.5 6t-13.5 8q-12 53 -29.5 104.5t-35.5 94.5q-39 86 -164 141q6 -72 -27.5 -125t-117.5 -59 q-94 -6 -152 57q-23 23 -32 58.5t-11 70.5q18 78 68.5 121t128.5 43q31 86 30 246q0 150 -135 284q-135 135 -284 135q-86 0 -152 -47q-78 -55 -78 -135q70 29 184 29q182 0 183 -211q0 -68 -56.5 -161t-167.5 -208l-129 150q29 23 68 59.5t76 77.5q47 49 73.5 89t26.5 60 q0 55 -65 56q-31 0 -117 -51q-41 -23 -69.5 -36.5t-45.5 -13.5q-51 0 -92 54q-39 51 -39 110zM956 477q78 -29 168 -162v889h-168v-727z" />
<glyph horiz-adv-x="1226" d="M31 553v10q4 197 8 193l65 -68q-10 -31 -10 -53q0 -59 22.5 -104.5t59.5 -77t85 -48t101 -16.5q123 0 208 -9t118 -20q72 -16 131.5 -53t100.5 -96q6 248 8 383q2 90 2 154q0 68 -26.5 138t-74.5 136q-111 145 -241 145q-199 0 -275 -182q86 37 150 37q49 0 91 -13.5 t73 -35.5q33 -29 51 -67t18 -87q0 -66 -62.5 -148.5t-172.5 -203.5l-133 151q27 18 123 103.5t122 150.5q0 55 -67 56q-25 0 -111 -51q-41 -23 -71.5 -36.5t-49.5 -13.5q-45 0 -90 58q-39 51 -39 106q0 141 131 234q59 41 126 60.5t141 19.5q182 0 284 -119q70 -82 150 -305 l-19 331q-4 100 -7 180.5t-3 145.5l66 -65q-4 -16 -4 -33q-4 -125 102 -123q12 0 33 2l115 -115h-209v-1231l-152 162q-82 84 -266 84q-31 0 -99.5 -4t-142.5 -4q-61 0 -110.5 14.5t-86 37t-62.5 51t-44 57.5q-31 47 -44 93t-13 89z" />
<glyph horiz-adv-x="1634" d="M31 553v10q-4 119 8 193l65 -68q-10 -31 -10 -53q0 -59 22.5 -104.5t59.5 -77t85 -48t101 -16.5q123 0 208 -9t118 -20q72 -16 131.5 -53t100.5 -96q6 248 8 383q2 90 2 154q0 68 -26.5 138t-74.5 136q-111 145 -241 145q-199 0 -275 -182q86 37 150 37q49 0 91 -13.5 t73 -35.5q33 -29 51 -67t18 -87q0 -66 -62.5 -148.5t-172.5 -203.5l-133 151q27 18 123 103.5t122 150.5q0 55 -67 56q-25 0 -111 -51q-41 -23 -71.5 -36.5t-49.5 -13.5q-45 0 -90 58q-39 51 -39 106q0 141 131 234q59 41 126 60.5t141 19.5q182 0 284 -119q70 -82 150 -305 l-19 331q-4 100 -7 180.5t-3 145.5l66 -65q-4 -16 -4 -33q-4 -125 102 -123q12 0 33 2l115 -115h-209v-1231l-152 162q-82 84 -266 84q-31 0 -99.5 -4t-142.5 -4q-61 0 -110.5 14.5t-86 37t-62.5 51t-44 57.5q-31 47 -44 93t-13 89zM979 674v114q78 -119 154.5 -180 t148.5 -61q61 0 100 47t39 108q0 86 -78 134q6 -29 7 -50q0 -59 -36 -88.5t-79 -29.5t-79 29.5t-36 88.5q0 33 17.5 60.5t45 48t59.5 32t61 11.5q98 0 170 -84q35 -41 50 -89t15 -101q0 -47 -15.5 -88t-43 -74t-65.5 -51.5t-83 -18.5q-63 0 -151 61.5t-201 180.5zM1067 1319 h504l117 -115h-504z" />
<glyph horiz-adv-x="1523" d="M31 553v10q4 197 8 193l65 -68q-10 -31 -10 -53q0 -59 22.5 -104.5t59.5 -77t85 -48t101 -16.5q123 0 208 -9t118 -20q72 -16 131.5 -53t100.5 -96q6 248 8 383q2 90 2 154q0 68 -26.5 138t-74.5 136q-111 145 -241 145q-199 0 -275 -182q86 37 150 37q49 0 91 -13.5 t73 -35.5q33 -29 51 -67t18 -87q0 -66 -62.5 -148.5t-172.5 -203.5l-133 151q27 18 123 103.5t122 150.5q0 55 -67 56q-25 0 -111 -51q-41 -23 -71.5 -36.5t-49.5 -13.5q-45 0 -90 58q-39 51 -39 106q0 141 131 234q59 41 126 60.5t141 19.5q182 0 284 -119q70 -82 150 -305 l-19 331q-4 100 -7 180.5t-3 145.5l66 -65q-4 -16 -4 -33q-4 -125 102 -123q12 0 33 2l115 -115h-209v-1231l-152 162q-82 84 -266 84q-31 0 -99.5 -4t-142.5 -4q-61 0 -110.5 14.5t-86 37t-62.5 51t-44 57.5q-31 47 -44 93t-13 89zM1026 709v176q72 29 136.5 51t114.5 20 t82 -37.5t36 -121.5q-18 -193 -11 -386.5t42 -385.5l-133 90q-25 139 -25 547q4 129 -21 126q-10 2 -22 1t-36.5 -10t-63.5 -25.5t-99 -44.5zM1102 1319h352l117 -115h-350z" />
<glyph horiz-adv-x="1177" d="M90 133q0 109 53 180q31 43 73 63.5t91 20.5q133 0 254 -139q0 25 12.5 49.5t31 44t42 31.5t47.5 12q59 0 102.5 -43t69.5 -86v174t1 161t1 120v51q0 63 -26.5 126t-69.5 122q-106 147 -240 147q-199 0 -274 -182q86 37 150 37q49 0 91 -13.5t72 -35.5q33 -29 51.5 -67 t18.5 -87q0 -66 -62.5 -165t-172.5 -220l-134 152q27 18 64 54t78 83q49 53 76.5 92t27.5 57q0 55 -67 56q-25 0 -111 -51q-41 -23 -71.5 -36.5t-49.5 -13.5q-45 0 -90 58q-39 51 -39 106q0 141 131 234q59 41 126 60.5t140 19.5q182 0 285 -119q70 -82 148 -305l-17 331 q-4 100 -7 180.5t-3 145.5l65 -65l-2 -33q0 -66 24 -94.5t77 -28.5q12 0 19 1t14 1l114 -115h-209v-1392l-61 30q-2 53 -14.5 122t-42.5 167q-18 57 -52 84t-77 27q-53 0 -71 -37t-18 -80q0 -18 2.5 -34.5t4.5 -33.5l-45 -16q-10 86 -80 143.5t-162 57.5q-37 0 -70 -11.5 t-57 -29.5q-55 -49 -55 -121q0 -115 147 -141q-18 23 -22.5 45t-6.5 45q4 47 41 82.5t84 35.5q61 0 101 -57q31 -49 30 -117q0 -57 -50 -97t-113 -40q-127 0 -226 82q-92 80 -92 215z" />
<glyph horiz-adv-x="1144" d="M49 991q0 66 27.5 124.5t77.5 103.5q96 84 237 84q383 0 457 -308h4v543l66 -65q-4 -10 -4.5 -15.5t-2.5 -9.5q-2 -6 -2 -8q0 -137 142 -121l112 -115h-207v-1298q-16 8 -40.5 20.5t-43.5 22.5q-47 111 -167.5 167t-301.5 60l-135 172q205 129 330 202t229 138 q0 8 2 21.5t2 23.5q2 10 2.5 22.5t0.5 18.5q0 137 -103 260q-111 133 -239 133q-199 0 -275 -180l98 17q78 14 93 14q41 0 73.5 -17.5t56 -47t36 -68.5t12.5 -80q0 -68 -97 -168q-41 -43 -153 -133l-129 145q37 29 76 53.5t75 49.5q119 84 119 120q0 55 -65 56 q-31 0 -117 -51q-41 -23 -69.5 -36.5t-45.5 -13.5q-51 0 -92 54q-39 51 -39 110zM481 313q244 -55 346 -188v403q-242 -137 -346 -215z" />
<glyph horiz-adv-x="1050" d="M-129 1319h1081l113 -115h-195v-1343l-36 26q-25 92 -68 172t-100 152q-37 45 -77 69.5t-77 24.5q-20 0 -38.5 -5t-39.5 -19q78 -66 78 -134q-12 -133 -156 -139q-186 0 -186 205q6 104 90 164q80 59 174 59q98 0 211 -96t139 -197l-12 152q-8 55 -47 102t-104 82 q-66 35 -134.5 54.5t-136.5 19.5q-33 0 -57 -6l-154 158l189 172q-29 -10 -67 -12.5t-73 9.5q-53 20 -86.5 78t-21.5 144q12 66 47 108h-143zM250 1075q6 -78 78 -106q90 -23 180 69l119 -98l-250 -250q127 -33 213 -84q84 -49 168 -141v739h-385q-123 0 -123 -129z" />
<glyph horiz-adv-x="1101" d="M-119 1319h1129l112 -115h-186v-1370q-10 6 -36 38t-71 85q-29 33 -66.5 52.5t-84.5 23.5h-205q-100 0 -178 11t-113 28q-92 41 -129 111.5t-37 170.5q0 35 10.5 86.5t28.5 116.5l43 -43q-8 -10 -10 -28.5t-2 -47.5q0 -184 174 -221q141 -10 234 -18q233 -27 337 -174 v135q-176 317 -512 317l-151 160q76 82 240 233q-45 -16 -91 -16q-90 0 -163 61q-37 33 -55.5 73t-18.5 83q0 63 39 133h-125zM270 1053q0 -53 39 -88t92 -35q117 0 185 92l121 -121q-68 -41 -143 -110.5t-146 -159.5q266 -107 401 -320v893h-420q-25 0 -48 -14t-41.5 -35.5 t-29 -48.5t-10.5 -53z" />
<glyph horiz-adv-x="1103" d="M-117 1319h1123l110 -115h-180v-1405l-80 64q-61 121 -149 164q-55 25 -91 38t-102 15l-98 137l270 186q-90 68 -183 103t-184 39l-151 157l238 168q-41 -16 -89 -16q-90 0 -163 61q-37 33 -55.5 73t-18.5 83q0 63 39 133h-123zM270 1053q0 -57 39 -90t92 -33 q117 0 185 92l121 -121l-289 -205q311 -125 401 -270v778h-420q-27 0 -50 -12t-40.5 -33.5t-28 -49.5t-10.5 -56zM621 180q70 -27 113.5 -61.5t84.5 -95.5v305z" />
<glyph horiz-adv-x="1230" d="M-111 1319h1227l121 -115h-174q31 -80 31 -117q0 -61 -47.5 -96t-108.5 -35q-80 0 -174 93q-35 39 -68.5 76.5t-68.5 78.5h-310q61 -41 74 -98q92 -14 157.5 -29.5t100.5 -36.5q51 -33 90 -88t54 -127q152 -31 254 -129q111 -111 110 -254q0 -80 -43 -131 q-45 -57 -119 -57q-45 0 -81.5 30.5t-36.5 75.5q0 51 51 103q35 10 61 10q59 0 103 -67q0 111 -82 180q-78 66 -174 65h-37v-678l-41 33q-160 328 -463 348l-152 178q119 80 260.5 156t278.5 131v25q0 53 -41 100q-43 49 -96 49q-102 0 -148 -61v-31q0 -78 -48 -123 t-109 -45q-72 0 -107 45t-35 105q0 78 46 118.5t143 75.5l2 17q-43 88 -121 106q-10 2 -61.5 3t-98.5 1zM362 477q41 -14 84 -40.5t91 -67.5q47 -39 82.5 -75t64.5 -69v420q-78 -29 -156.5 -71t-165.5 -97zM715 1204l86 -90q49 -43 104 -43q37 0 74 20.5t37 55.5 q0 32 -29 57h-272z" />
<glyph horiz-adv-x="1230" d="M-141 1319h1278l123 -115h-197q31 -80 31 -117q0 -61 -47.5 -96t-108.5 -35q-80 0 -174 93q-35 39 -68.5 76.5t-68.5 78.5h-310q61 -41 74 -98q92 0 157.5 -22.5t100.5 -43.5q51 -33 90 -88t54 -127q152 -31 254 -129q111 -111 110 -254q0 -80 -43 -131q-45 -57 -119 -57 q-45 0 -81.5 30.5t-36.5 75.5q0 51 32.5 82t79.5 31q59 0 103 -67q0 111 -82 180q-41 35 -89.5 50t-121.5 15v-815q-6 4 -22.5 17.5t-33.5 25.5q-29 33 -59.5 60.5t-65.5 46.5q-39 20 -74.5 28.5t-69.5 11.5t-68.5 2t-73.5 3q-170 2 -260 76.5t-90 246.5q0 68 4 106t8 68 l61 -59q-4 -10 -11 -48t-7 -69q0 -63 53 -101t131 -46t143.5 -14.5t124.5 -26.5q45 -16 96.5 -48t108.5 -96v97q-150 219 -399 237l-152 178q119 80 260.5 156t278.5 131q0 45 -9 73t-32 52q-43 49 -96 49q-102 0 -148 -61q0 -94 -45 -146.5t-112 -52.5q-143 0 -144 121 q0 78 47 135.5t146 104.5q-45 92 -121 110h-191zM362 477q41 -14 84 -40.5t91 -67.5q47 -39 82.5 -75t64.5 -69v420q-78 -29 -156.5 -71t-165.5 -97zM715 1204l86 -90q49 -43 104 -43q37 0 74 20.5t37 55.5q0 30 -27 57h-274z" />
<glyph horiz-adv-x="2129" d="M-137 1319h2197l117 -115h-532v-188q16 2 34.5 3t46.5 1q133 0 236 -86q96 -86 100 -215q-2 -47 -17 -85t-41 -65.5t-57.5 -44t-64.5 -18.5q-145 0 -149 121q0 53 29.5 87t72.5 34q76 0 133 -72q18 33 19 67q0 66 -91 109q-66 27 -143 27q-59 0 -104 -17v-846l-50 62 q-35 96 -59 158.5t-41 91.5q-72 121 -196 180q-39 -113 -158 -113q-61 0 -105.5 42t-44.5 106q0 43 18.5 73.5t47.5 49t63.5 25.5t69.5 1q12 31 12 66q0 33 -13 64.5t-34.5 55t-51.5 38t-63 14.5q-29 0 -61 -27q0 -59 -45 -104q-41 -41 -94 -47q53 -96 53 -201 q0 -8 -2 -29.5t-9 -49.5t-23.5 -59.5t-43.5 -58.5q-35 -35 -87 -57.5t-126 -22.5h-31q-70 8 -142.5 49.5t-140 111t-125.5 163.5t-95 209q-20 63 -31.5 134t-24.5 167l58 -45l12 -57q20 -88 42 -156t65 -143q35 -53 74.5 -101.5t111.5 -103.5q47 -35 89 -53.5t103 -20.5h23 q66 0 126 23.5t81 80.5q6 20 6 46q0 47 -21.5 92t-50.5 75q-16 -23 -43.5 -51t-62.5 -49q-33 -20 -65 -27.5t-64 -7.5q-51 0 -84 16.5t-64 47.5q-27 31 -39 72.5t-12 89.5q0 72 10.5 134t26.5 115q8 23 20.5 53.5t32.5 65.5h-416zM406 827q0 -29 4 -51q8 -31 24.5 -49 t40.5 -18q23 0 57.5 11t67.5 48q10 10 30.5 35.5t45.5 73.5q-8 66 18 114h-16q-70 0 -117 15.5t-86 52.5q-35 -72 -52 -125t-17 -107zM516 1116q10 -14 23.5 -23.5t31 -15.5t51 -10t61.5 1t62.5 23.5t34.5 59.5q-2 31 -22 53h-144q-20 -6 -46.5 -27.5t-51.5 -60.5zM893 1188 q0 -59 41 -113l72 -24q59 -23 119.5 -65t107.5 -95q47 -59 74.5 -127t31.5 -135q136 -87 197 -232v459q-135 12 -244 111q-106 100 -121 237h-278v-16zM1282 1151q8 -154 193 -154h28.5t30.5 4v203h-225q-27 0 -27 -53z" />
<glyph horiz-adv-x="2109" d="M-137 1319h2197l117 -115h-532v-188q16 2 34.5 3t46.5 1q133 0 236 -86q100 -88 100 -215q-4 -92 -42 -146.5t-103 -66.5q-70 2 -122 31.5t-62 89.5q-2 53 28.5 87t73.5 34q74 4 133 -72q18 33 19 67q0 66 -91 109q-66 27 -143 27q-59 0 -104 -17v-985q-10 6 -36 38 t-69 85q-29 33 -66.5 52.5t-86.5 23.5q-25 0 -64 -5t-88 -18q-53 -12 -100 -19t-90 -7q-74 0 -131 22q-166 70 -179 248q-27 -10 -59.5 -16.5t-73.5 -6.5h-31q-70 8 -142.5 49.5t-140 111t-125.5 163.5t-95 209q-23 72 -34 148.5t-22 152.5l58 -45v2q20 -96 45.5 -187.5 t73.5 -170.5q35 -53 74.5 -101.5t111.5 -103.5q47 -35 89 -53.5t103 -20.5h23q66 0 126 23.5t81 80.5q6 20 6 46q0 47 -21.5 92t-50.5 75q-16 -23 -43.5 -51t-62.5 -49q-33 -20 -65 -27.5t-64 -7.5q-51 0 -84 16.5t-64 47.5q-29 31 -40 72.5t-11 89.5q0 72 10.5 134 t26.5 115q8 23 20.5 53.5t32.5 65.5h-416zM406 827q0 -29 8 -51q4 -31 20.5 -49t40.5 -18q23 0 57.5 11t67.5 48q10 10 30.5 35.5t45.5 73.5q-2 12 -3 23t1 24q4 39 20 67h-16q-70 0 -117 15.5t-82 54.5l-4 -2q-35 -72 -52 -125t-17 -107zM516 1116q10 -14 25 -22 q12 -10 29.5 -16.5t41.5 -10.5h23q29 0 52.5 3t43.5 13q49 27 49 68q0 16 -8 35l-14 18h-144q-10 -2 -19 -7t-20 -11h3l-15 -10q-10 -8 -18 -17.5t-15 -19.5q-8 -10 -14 -23zM819 354q20 -137 166 -168q31 -6 68 -6q51 0 106 13q57 20 133 24q74 -2 136.5 -39t113.5 -115 l4 5v147q-16 37 -26.5 64.5t-20.5 46.5q-70 123 -196 182q-39 -113 -158 -113q-61 0 -105.5 42t-44.5 106q0 76 59.5 116.5t139.5 32.5q12 31 12 66q0 33 -13 64.5t-34.5 55t-51.5 38t-63 14.5q-29 0 -61 -27q0 -59 -45 -104q-41 -41 -94 -47q53 -96 53 -201q0 -8 -2 -29.5 t-9 -49.5t-23.5 -59.5t-43.5 -58.5zM893 1204q0 -4 1 -8t1 -8q2 -8 3 -14.5t1 -14.5l29 -69l6 -15l72 -24q59 -23 119.5 -65t107.5 -95q47 -59 74.5 -127t31.5 -135q137 -88 193 -232h4v459q-135 12 -244 111q-106 100 -121 237h-278zM1282 1151q8 -154 193 -154h27.5 t29.5 2l2 2v203h-225q-27 0 -27 -53z" />
<glyph horiz-adv-x="1822" d="M-113 1319h758q98 0 152.5 -20.5t91.5 -75.5q61 -18 67 -99q35 6 71 25.5t73 48.5q4 2 37.5 36t72.5 71q66 -55 107 -92t51 -48q82 -88 82 -182q0 -100 -80 -192q-80 -88 -184 -117q123 -61 216 -142t150 -182v1182q12 -10 31 -20.5t33 -20.5q0 -35 4 -70t8 -47 q23 -49 96 -55l117 -115h-178v-1192q-23 20 -41 48t-29 55q-72 199 -225.5 309.5t-357.5 132.5l-154 193q25 -47 35 -99.5t10 -99.5q0 -8 -2 -29.5t-9 -49.5t-23.5 -59.5t-43.5 -58.5q-35 -35 -90 -57.5t-149 -22.5q-72 8 -145.5 49.5t-141.5 111t-126 163.5t-95 209 q-20 63 -30.5 134t-25.5 167l58 -45q16 -66 28.5 -115t26.5 -91t29.5 -78t38.5 -72q29 -47 72.5 -101.5t109.5 -103.5q45 -35 88 -52.5t104 -21.5q41 0 83 7t76 24.5t55.5 46.5t21.5 72q0 47 -21.5 92t-50.5 75q-16 -23 -43.5 -50t-62.5 -50q-33 -20 -64.5 -27.5t-64.5 -7.5 q-51 0 -84 16.5t-64 47.5q-29 31 -40 72.5t-11 89.5q0 72 10.5 134t26.5 115q8 23 22.5 53.5t32.5 65.5h-397zM414 827q0 -18 2 -38.5t9 -39t19.5 -29.5t34.5 -11q25 0 59.5 11t65.5 48q14 14 36 42t46 77q35 -16 70 -41t59 -51q23 -4 45.5 -7.5t50.5 -3.5q59 0 123 15.5 t129 44.5q78 35 123 77t45 89q0 72 -59 125q-188 -188 -377 -189q-66 0 -121 45l-10 8q-39 -8 -82 -8q-70 0 -117 15.5t-84 56.5q-35 -74 -51 -128t-16 -108zM520 1116q10 -12 29 -20q16 -8 38.5 -15.5t57.5 -11.5q31 0 50.5 4t39.5 12q29 12 39 27.5t10 38.5 q0 35 -27.5 50.5t-56.5 15.5q-47 -2 -76.5 -12.5t-56.5 -28.5q-18 -16 -32 -37q-8 -10 -15 -23z" />
<glyph horiz-adv-x="1128" d="M-133 1319h1192l110 -115h-319q18 -37 18 -41q0 -29 -12 -53.5t-32.5 -45t-47 -31.5t-53.5 -11q-66 0 -145 65l-119 117h-111q-12 -41 -12 -57q0 -23 70 -66q51 -31 82.5 -51t43.5 -37q72 -72 72 -192q72 98 155 166.5t171 103.5q47 -31 93 -62.5t95 -62.5 q-129 -117 -199.5 -260t-70.5 -330q0 -213 94 -368l-88 47q-43 117 -68.5 227.5t-25.5 208.5q0 82 22.5 174t69.5 197q-41 -41 -94 -104.5t-125 -153.5q-37 -45 -75 -89t-77 -78t-80 -55.5t-86 -21.5q-61 0 -120 59q-35 35 -54.5 81t-27.5 100l49 57q27 -123 98 -123 q90 0 178 100q88 106 88 197q0 135 -120 135q-16 0 -32 -5t-20 -17q0 -156 -123 -156q-154 0 -153 154q0 72 53 122t125 56v4q2 29 -13.5 53.5t-41.5 46.5h-224zM530 1204q92 -98 154 -110q74 0 74 75l-8 35h-220z" />
<glyph horiz-adv-x="1912" d="M-117 1319h1932l112 -115h-188v-1202l-53 51q-174 426 -521 426q-16 0 -26.5 -1t-14.5 -1l-151 160q76 82 239 233q-49 -16 -90 -16q-45 0 -88 17.5t-76.5 47t-54 69.5t-20.5 87q-10 -12 -23 -22q-10 -10 -24.5 -19.5t-30.5 -15.5q-66 -27 -127 -27q-70 0 -116 15.5 t-85 56.5q-35 -74 -49 -122t-14 -105q0 -18 2 -39t9 -39.5t20.5 -29.5t33.5 -11q16 0 40 6t49.5 23.5t54 51t57.5 89.5q55 -25 95 -62t67.5 -81t41 -94t13.5 -99q0 -12 -8 -57t-41 -95.5t-96.5 -91.5t-176.5 -43q-35 2 -74.5 16.5t-79.5 36t-78 50t-64 61.5q-57 66 -116 161 t-93 218q-23 76 -33 150.5t-21 150.5l58 -45q20 -90 41.5 -167t54.5 -144.5t82 -130t127 -119.5q45 -35 90 -50.5t125 -15.5q39 0 76 7.5t66.5 24.5t48 45t18.5 71q0 45 -20.5 87t-47.5 74q-20 -25 -43.5 -48t-53.5 -42.5t-63.5 -32t-74.5 -12.5q-94 0 -146.5 60.5 t-52.5 165.5q0 55 4 101t14.5 90t28 87t43.5 90h-395zM516 1116q8 -12 35 -32.5t80 -20.5q61 0 105 20.5t44 67.5q0 8 -4 23.5t-18 27.5q-18 10 -33.5 12.5t-42.5 2.5q-27 -1 -47 -7q-35 -10 -73 -37.5t-46 -56.5zM1075 1053q0 -53 39 -88t92 -35q115 0 183 92l122 -121 q-68 -41 -142.5 -110.5t-147.5 -159.5q272 -107 403 -320v893h-420q-27 0 -50.5 -14t-40.5 -37t-27.5 -49.5t-10.5 -50.5z" />
<glyph horiz-adv-x="1916" d="M-117 1319h1932l112 -115h-188v-1325q-10 6 -36 38t-69 85q-29 33 -66.5 52.5t-86.5 23.5h-203q-102 0 -182 11t-138 36q-141 55 -172 203l-22 -17q-29 -16 -70 -26.5t-88 -10.5h-31q-70 8 -142.5 49.5t-140 111t-124.5 163.5t-96 209q-10 33 -18.5 72t-15.5 78.5 t-12.5 78.5t-9.5 72l58 -45l12 -49q16 -72 34.5 -138.5t50.5 -130t81 -125t127 -118.5q45 -35 90 -54.5t125 -19.5q39 0 77 8t68.5 26.5t49 46.5t18.5 69q0 47 -22.5 91t-49.5 76q-20 -25 -43.5 -48t-53.5 -42.5t-63.5 -32t-74.5 -12.5q-94 0 -146.5 60.5t-52.5 165.5 q0 55 4 101t14.5 90t28 87t43.5 90h-395zM406 829q0 -18 2 -39.5t10 -39t21.5 -29.5t35.5 -12q16 0 40 7t50.5 26.5t56 54t58.5 90.5q55 -25 95 -62t67.5 -81t41 -94t13.5 -99q0 -29 -6 -59q-4 -16 -14.5 -40t-20.5 -44q35 -121 168 -146q92 -4 159.5 -9t114.5 -11 q232 -25 338 -172v88q-172 322 -471 321h-18q-4 0 -11.5 -1t-11.5 -1l-151 160q76 82 239 233q-43 -16 -90 -16q-45 0 -88 17.5t-75.5 47t-53 70.5t-22.5 90l-13 -14q-10 -10 -23 -21.5t-42 -25.5q-49 -25 -127 -27q-70 0 -116 15.5t-85 56.5q-35 -76 -53 -128t-18 -106z M516 1116q8 -12 32.5 -31.5t63.5 -21.5h19q61 0 105 20.5t44 67.5q0 16 -8 35l-14 16q-18 10 -32.5 12.5t-31.5 2.5h-12q-27 -1 -47 -7q-35 -10 -73 -37.5t-46 -56.5zM1075 1053q0 -53 39 -88t92 -35q115 0 183 92l122 -121q-68 -41 -142.5 -110.5t-147.5 -159.5 q137 -53 236 -132t167 -188v893h-420q-27 0 -50.5 -14t-40.5 -37t-27.5 -49.5t-10.5 -50.5z" />
<glyph horiz-adv-x="1447" d="M-113 1319h1467l116 -115h-233v-1493l-61 49v-2q-98 293 -201 260q-16 -59 -61.5 -99t-102.5 -40q-74 0 -122 45t-48 117q0 35 12.5 66.5t39 56t65.5 39t94 14.5q-6 66 -78 100q-41 -27 -81 -36t-72 -9q-88 -2 -166 33t-148.5 103.5t-130 169t-100.5 229.5 q-23 74 -34 148.5t-22 152.5l58 -45l8 -33q16 -74 36.5 -143.5t54.5 -135t83 -128t123 -121.5q47 -35 94 -55.5t113 -20.5q39 0 78 8t70.5 25.5t52 46.5t20.5 72q0 47 -21.5 92t-50.5 75q-39 -47 -98 -91t-137 -44q-92 0 -146.5 62.5t-54.5 163.5q0 55 5 100t16.5 88t30 86 t42.5 92h-397zM408 827q0 -53 17 -85.5t54 -32.5q39 0 92.5 33.5t112.5 144.5q55 -25 96 -62t67.5 -83t40 -96t13.5 -99q0 -10 -7 -48t-38 -81q76 -94 102 -215l3 -2q66 -39 106.5 -75t52.5 -73h4v1151h-225q2 -12 3 -23.5t1 -21.5q0 -51 -21.5 -86t-54 -57.5t-71.5 -32.5 t-74 -10q-70 0 -118 24.5t-83 65.5q-35 -74 -54 -129t-19 -107zM520 1120q0 -2 7.5 -14t21.5 -26.5t35.5 -26t50.5 -11.5q66 0 107.5 33t41.5 76q0 18 -10 31.5t-25.5 20.5t-33 10.5t-29.5 3.5q-61 -2 -104.5 -28t-61.5 -69z" />
<glyph horiz-adv-x="1210" d="M29 1022l57 -45q86 -377 229.5 -563.5t341.5 -186.5q115 0 203 60q92 68 92 182q0 68 -71 145q-37 -55 -136 -125q-49 -37 -88 -54t-63 -17q-45 0 -102 41q-115 92 -115 248l8 196q-229 174 -324 311l172 48l66 -127q39 -70 90 -117q92 236 293 235q215 0 215 -196 q0 -104 -86 -160q-74 -47 -184 -47q-94 0 -140 31v-217q0 -84 76 -84q57 0 139 82q31 33 56.5 68.5t42.5 70.5q111 -43 178 -154q68 -111 68 -231q0 -84 -26 -153.5t-73 -119t-114.5 -76t-151.5 -26.5q-160 0 -283 90t-209 256q-49 111 -92 273.5t-69 361.5zM80 90 q0 35 10.5 85t28.5 115l43 -43q-14 -20 -14 -78q0 -182 174 -221q66 -14 134.5 -13t164.5 -1q211 -18 313 -176v581l103 103v-875q-8 8 -33 39t-72 84q-59 70 -159 84h-98.5h-98.5q-100 0 -181 8.5t-139 30.5q-82 39 -129 107.5t-47 169.5zM508 963q14 -18 55 -19 q35 0 75 10.5t75 26.5q96 43 96 109q0 49 -57 49q-39 0 -78 -13.5t-72 -37t-57.5 -56.5t-36.5 -69z" />
<glyph horiz-adv-x="1536" d="M-133 1319h1563l116 -115h-739q0 -33 11 -63.5t24 -46.5q27 -39 110 -101q23 -16 60 -32.5t90 -30.5q61 -18 105 -32.5t73 -31.5q102 -53 102 -159q0 -66 -23.5 -136.5t-64.5 -136.5q-49 -68 -102 -126t-106.5 -101t-103.5 -66.5t-95 -23.5q-74 0 -133 90 q-31 39 -45.5 71.5t-14.5 57.5v100q-182 -238 -352 -237q-72 0 -135 77q-57 86 -57 144v784h-170zM264 422q0 -70 49 -70q47 0 114 53.5t153 151.5q23 27 34 51.5t11 55.5q0 14 -2.5 28.5t-10.5 24.5q-20 18 -77 49q-10 4 -23.5 11t-30.5 22q-90 53 -135 101t-78 108h-4 v-586zM264 1204q0 -35 10.5 -64.5t20.5 -45.5q33 -39 113 -101q23 -14 85 -40.5t121 -51.5l80 -35v338h-430zM807 338q0 -68 49 -68t116.5 52.5t151.5 150.5q41 47 65.5 95t24.5 96q0 14 -3 28.5t-13 24.5q-6 6 -26.5 14t-45.5 19q-23 10 -49 20t-53 29q-90 53 -135 101 t-78 108h-4v-670z" />
<glyph horiz-adv-x="1654" d="M-113 1319h1676l112 -115h-837q86 -180 278 -180q10 0 32.5 2t43.5 6q20 4 40.5 6t35.5 2q156 -6 235 -108q84 -102 72 -227q0 -135 -125 -240q-78 -70 -244 -154q203 -106 285 -170q47 -37 107.5 -95t127.5 -136l13 -82q-180 186 -398.5 289.5t-474.5 130.5l-114 213 q49 -16 90 -23.5t78 -7.5q98 0 184 20.5t160 57.5q96 47 146 116.5t50 159.5q0 125 -164 125l-30 -8l8 -45q-10 -100 -135 -207q-57 -43 -117.5 -69.5t-110.5 -26.5q-29 0 -53 7t-51 24q-106 -193 -226 -289t-219 -96q-72 0 -133 90q-59 74 -59 131v784h-170zM285 422 q0 -70 49 -70q47 0 113.5 53.5t152.5 151.5q23 27 34 51.5t11 55.5q0 14 -2 28.5t-10 24.5q-20 18 -78 49q-10 4 -23.5 11t-29.5 22q-90 53 -135 101t-78 108h-4v-586zM285 1204q0 -33 10 -63.5t20 -46.5q16 -18 46 -45t67 -56q23 -14 85 -40.5t122 -51.5l78 -35h-4l10 -5 t14 -5v348h-448zM846 725q0 -68 43 -68q37 0 76 24t73 58q35 39 56.5 80t19.5 78l-2 2q-166 37 -266 174v-348z" />
<glyph horiz-adv-x="1660" d="M-113 1319h1676l112 -115h-837q86 -180 278 -180q10 0 32.5 2t43.5 6q20 4 40.5 6t35.5 2q156 -6 235 -108q84 -102 72 -227q0 -135 -125 -240q-78 -70 -244 -154q203 -106 285 -170q47 -37 107.5 -95t127.5 -136l13 -82q-47 47 -98.5 92t-108.5 86v-377q-10 10 -37 42 t-70 81q-29 33 -66.5 53.5t-84.5 24.5h-205q-207 0 -319 47q-178 76 -179 273q0 29 6.5 69.5t22.5 93.5q-66 -59 -126 -86.5t-112 -27.5q-72 0 -133 90q-59 74 -59 131v784h-170zM285 422q0 -70 49 -70q47 0 113.5 53.5t152.5 151.5q23 27 34 51.5t11 55.5q0 14 -2 28.5 t-10 24.5q-20 18 -78 49q-10 4 -23.5 11t-29.5 22q-90 53 -135 101t-78 108h-4v-586zM285 1204q0 -33 10 -63.5t20 -46.5q16 -18 46 -45t67 -56q23 -14 85 -40.5t122 -51.5l78 -35h-4l10 -5t14 -5v348h-448zM629 338q4 -4 13 -14.5t13 -14.5q-14 -20 -14 -76 q0 -182 176 -219q41 -10 96 -12q63 -2 108.5 -3t74.5 -5q229 -25 327 -176l4 2v250q-125 72 -268 116.5t-293 61.5l-114 213q49 -16 90 -23.5t78 -7.5q98 0 184 20.5t160 57.5q96 47 146 116.5t50 159.5q0 125 -164 125l-30 -8l8 -45q-10 -100 -135 -207 q-57 -43 -117.5 -69.5t-110.5 -26.5q-29 0 -53 7t-51 24q-39 -76 -85 -137.5t-93 -108.5zM846 725q0 -68 43 -68q37 0 76 24t73 58q35 39 56.5 80t19.5 78l-2 2q-166 37 -266 174v-348z" />
<glyph horiz-adv-x="1665" d="M-113 1319h1676l112 -115h-837q86 -180 278 -180q10 0 32.5 2t43.5 6q20 4 40.5 6t35.5 2q156 -6 235 -108q84 -102 72 -227q0 -135 -125 -240q-78 -70 -244 -154q203 -106 285 -170q47 -37 107.5 -95t127.5 -136l15 -84q-72 72 -146.5 132t-158.5 112v-590q-16 6 -37 16 t-37 19q-53 129 -147.5 198.5t-213.5 73.5q-16 51 -38.5 105.5t-40.5 105.5l206 141h-2l66 37q-78 29 -160 45.5t-166 26.5l-114 213q49 -16 90 -23.5t78 -7.5q98 0 184 20.5t160 57.5q96 47 146 116.5t50 159.5q0 125 -164 125l-30 -8l8 -45q-10 -100 -135 -207 q-57 -43 -117.5 -69.5t-110.5 -26.5q-29 0 -53 7t-51 24q-106 -193 -226 -289t-219 -96q-72 0 -133 90q-59 74 -59 131v784h-170zM285 422q0 -70 49 -70q47 0 113.5 53.5t152.5 151.5q23 27 34 51.5t11 55.5q0 14 -2 28.5t-10 24.5q-20 18 -78 49q-10 4 -23.5 11t-29.5 22 q-90 53 -135 101t-78 108h-4v-586zM285 1204q0 -33 10 -63.5t20 -46.5q16 -18 46 -45t67 -56q23 -14 85 -40.5t122 -51.5l78 -35h-4l10 -5t14 -5v348h-448zM846 725q0 -68 43 -68q37 0 76 24t73 58q35 39 56.5 80t19.5 78l-2 2q-166 37 -266 174v-348zM1079 -76 q80 -18 147.5 -78.5t104.5 -146.5h4v399q-53 -29 -116.5 -71.5t-139.5 -102.5z" />
<glyph horiz-adv-x="2340" d="M-135 1319h1268l77 -78q102 88 240 88q55 0 131 -65q74 -61 74 -117v-281q16 53 50 104.5t87 106.5q111 113 215 113q94 0 172 -80q74 -78 74 -178q0 -59 -23.5 -118.5t-75.5 -113.5q115 -88 115 -237q0 -45 -13 -91t-32 -81q-51 -82 -147 -82q-53 0 -110.5 19.5 t-117.5 66.5q-10 8 -64 57t-130 135l-2 -491q-25 2 -54 76q-18 53 -35.5 89t-29.5 56q-61 78 -170 78q-74 0 -136.5 -4t-119.5 -4q-27 0 -51.5 2t-48.5 6q-100 23 -178 69t-109 117q-98 -143 -193.5 -212.5t-187.5 -69.5q-68 0 -133 90q-61 80 -62 131v784h-170zM260 422 q0 -70 49 -70q98 0 266 203q12 14 23.5 35.5t18 44t5 44.5t-13.5 38q-20 20 -78 49q-86 41 -153.5 103.5t-116.5 138.5v-586zM260 1204q2 -59 19.5 -91.5t54.5 -61.5q59 -45 128.5 -80t147.5 -70q33 -12 68 -29.5t63.5 -41t48 -53t19.5 -68.5q0 -61 -16 -103 q6 -31 25.5 -54.5t45 -40.5t56 -27.5t59.5 -12.5q70 -6 140.5 -10t148.5 -17q156 -23 272 -133v869q0 35 -80 34q-104 0 -178 -122q-41 -74 -63 -193q16 6 30.5 8t26.5 2q29 0 48 -12t31.5 -32.5t18.5 -44t6 -46.5q0 -125 -155 -135q-199 0 -199 201q0 102 37 191t108 173 h-911zM1663 678q0 -125 104 -215q104 -92 228 -92q72 0 123 26q63 40 63 103q0 37 -72 108q-29 -27 -67.5 -39t-54.5 -12q-61 0 -103.5 37t-42.5 94q0 51 42 86t97 35q35 0 66 -8t59 -23q53 86 54 129q0 53 -41 87t-95 34q-119 0 -241 -117q-119 -119 -119 -233z" />
<glyph horiz-adv-x="970" d="M-119 1319h987l117 -115h-706q-12 -170 278 -262q289 -96 277 -233q0 -76 -35 -164q0 -256 2 -506t2 -506l-37 27v-2q-57 188 -170 323q-72 96 -154 96q-39 0 -77 -22q78 -63 77 -135q-12 -131 -153 -139q-180 10 -189 204q10 106 93 164q86 61 172 62q102 0 210 -99 q57 -47 90 -90t50 -82h4l-25 537q-164 -213 -332 -213q-61 0 -129 76q-63 76 -63 143v821h-176zM283 385q0 -70 51 -70q98 0 211 140q55 70 83.5 121t28.5 90q0 14 -6 49l-2 2q-250 88 -362 291h-4v-623z" />
<glyph horiz-adv-x="884" d="M-119 1319h987l117 -115h-706q-12 -170 278 -262q289 -96 277 -233q0 -37 -7 -70v-958q-12 10 -90 100l-14 18q-27 31 -54.5 52.5t-52.5 25.5h-200q-137 0 -250 47q-178 74 -178 275q0 66 41 200l43 -43q-10 -10 -12.5 -28.5t-2.5 -44.5q0 -184 174 -222l203 -30 q184 -16 289 -166l4 2v549q-8 -10 -16.5 -18.5t-12.5 -16.5q-80 -100 -167 -158.5t-169 -58.5q-61 0 -129 76q-63 76 -63 143v821h-176zM283 385q0 -70 51 -70q98 0 211 140q55 70 83.5 121t28.5 90q0 14 -6 49l-2 2q-250 88 -362 291h-4v-623z" />
<glyph horiz-adv-x="964" d="M-119 1319h987l117 -115h-706q-12 -170 278 -262q289 -96 277 -233q0 -72 -35 -154t-101 -174q-80 -100 -167 -158.5t-169 -58.5q-61 0 -129 76q-63 76 -63 143v821h-176zM268 0q117 78 221.5 148.5t202.5 134.5q0 29 1 56.5t1 51.5q0 23 -1 43.5t-1 36.5q0 61 92 90 v-979q-55 31 -108 109q-59 86 -98 119q-76 51 -209 55zM283 385q0 -70 51 -70q98 0 211 140q55 70 83.5 121t28.5 90q0 14 -6 49l-2 2q-250 88 -362 291h-4v-623zM432 -45q145 -31 256 -176v344q-43 -27 -108.5 -69t-147.5 -99z" />
<glyph horiz-adv-x="1138" d="M-125 1319h1167l113 -115h-840q86 -180 281 -180q10 0 32.5 2t43.5 6q20 4 40.5 6t35.5 2q156 -6 235 -108q86 -104 70 -227q0 -137 -123 -240q-78 -70 -244 -154q203 -106 285 -170q47 -37 107.5 -95t127.5 -136l13 -82l-55.5 55.5t-55.5 48.5v-256l-51 41l-127 140 q-68 51 -187 51q-29 0 -68.5 -2t-94.5 -6q-104 -12 -160 -13q-174 0 -273.5 91.5t-99.5 261.5q0 68 3 107.5t9 66.5l105 -76q-14 -16 -23.5 -46t-9.5 -71q0 -133 172 -158q90 -6 182.5 -9t180.5 -13q113 -18 199.5 -63.5t138.5 -118.5l-3 151q-141 100 -306 159.5t-351 78.5 q-29 53 -56.5 105.5t-56.5 107.5q49 -16 90 -23.5t78 -7.5q98 0 184.5 20.5t159.5 57.5q96 47 146.5 116.5t50.5 159.5q0 125 -164 125l-31 -8l7 -45q-6 -98 -134 -207q-57 -43 -117.5 -69.5t-109.5 -26.5q-33 0 -64.5 11t-57 31.5t-41 48.5t-15.5 58v502h-225zM326 725 q0 -68 39 -68t78.5 24t74.5 58q35 39 56.5 80t19.5 78l-2 2q-166 37 -266 174v-348z" />
<glyph horiz-adv-x="1081" d="M-125 1319h1098l110 -115h-835q82 -180 276 -180q12 0 34 2t42 6q23 4 42.5 6t35.5 2q154 -6 233 -108q84 -102 72 -227q0 -135 -125 -240q-39 -35 -98.5 -73t-145.5 -81q100 -53 172 -95t113 -75q47 -37 107.5 -95t128.5 -136l14 -82q-180 186 -399.5 289.5 t-475.5 130.5l-112 213q47 -16 88 -23.5t80 -7.5q98 0 183 20.5t161 57.5q195 96 194 276q0 125 -163 125q-4 0 -9 -2q-4 -2 -20 -6q2 -10 2 -18.5t2 -14.5q0 -8 2 -12q0 -96 -133 -207q-59 -43 -119.5 -69.5t-112.5 -26.5q-33 0 -64.5 11t-56 31.5t-40 48.5t-15.5 58v502 h-153zM254 725q0 -68 41 -68q37 0 77 24t74 58q35 39 56.5 80t19.5 78l-2 2q-166 37 -266 174v-348zM362 -123q117 80 233 157t216 140q20 -10 57 -57q41 -43 41 -66v-612q-59 27 -118 115q-29 43 -54.5 73.5t-46.5 46.5q-37 29 -96 44.5t-125 17.5zM535 -168 q154 -33 272 -186v360q-47 -29 -116.5 -72t-155.5 -102z" />
<glyph horiz-adv-x="1863" d="M-109 1319h1878l113 -115h-1243q-43 0 -43 -39q0 -37 39 -62.5t89 -42t101.5 -24.5t75.5 -8q129 0 232 59q14 -23 40.5 -54.5t67.5 -60t98.5 -50t130.5 -21.5h29q29 2 69 12.5t87 26.5l141 -160q-88 -111 -136 -219t-48 -207q0 -47 1 -82.5t4 -68.5t7 -67t10 -77l13 -108 q-16 8 -37 15t-37 16q0 2 -2 2t-2 4q-4 16 -13.5 57t-18.5 93t-16.5 107.5t-7.5 100.5q0 41 8.5 97.5t24.5 127.5q2 25 64 189q-12 -2 -23.5 -2h-27.5q-72 0 -135.5 18.5t-117 46t-92 59t-61.5 58.5q-51 -18 -84 -50t-52.5 -63.5t-27.5 -61.5t-8 -44q0 -66 80 -66h16 q39 0 78 20.5t68 41.5q16 10 28.5 17t16.5 7q10 0 35.5 -19.5t51 -53t46 -76.5t20.5 -92q0 -45 -12 -100.5t-45 -102.5t-90 -80t-148 -33q-31 0 -71.5 6.5t-87.5 37t-100.5 94t-108.5 178.5q-18 -70 -75.5 -120t-129.5 -54h-29q-55 0 -117.5 19.5t-121 60t-107.5 105 t-78 155.5q-14 41 -24 86t-23 94l-12 59q-4 57 -11 110.5t-14 110.5q14 -8 36 -18t36 -21q20 -133 61 -244.5t94.5 -191.5t116 -124t125.5 -44q92 0 156 47.5t64 124.5q0 31 -14.5 66t-37.5 35q-10 0 -31.5 -10.5t-50.5 -22.5t-59.5 -22.5t-48.5 -10.5q-90 0 -145.5 62.5 t-55.5 179.5q0 80 35 151.5t88 120.5h-383zM354 901q0 -72 78 -72t178 76q8 8 21 8q18 0 40.5 -16t44 -47t40 -73t28.5 -91l17 -88q10 -49 41.5 -97t76 -86t96.5 -60.5t103 -22.5q39 0 75 13t61.5 37t41 54.5t15.5 67.5q0 16 -8.5 34.5t-28.5 41.5q-10 -8 -29.5 -19.5 t-43 -22t-49.5 -17.5t-50 -7q-49 0 -89 18.5t-69 50t-44 72.5t-15 86q0 16 4 43t10 54q8 31 16 63q-57 12 -110 29q-47 14 -99.5 33.5t-93.5 46.5q-10 6 -26.5 20t-33.5 31.5t-30.5 34t-17.5 26.5q-37 0 -64.5 -24.5t-46 -58t-29 -72.5t-10.5 -66z" />
<glyph horiz-adv-x="1863" d="M-109 1319h1878l113 -115h-1243q-43 0 -43 -39q0 -37 39 -62.5t89 -42t101.5 -24.5t75.5 -8q129 0 232 59q14 -23 40.5 -54.5t67.5 -60t98.5 -50t130.5 -21.5h29q29 2 69 12.5t87 26.5l141 -160q-174 -217 -174 -458v-717l-39 24l-61 90l-33 48q-127 111 -289 114 l-100 137l411 281l2 47q0 41 8.5 97.5t24.5 127.5q2 25 64 189q-12 -2 -23.5 -2h-27.5q-72 0 -135.5 18.5t-117 46t-92 59t-61.5 58.5q-51 -18 -84 -50t-52.5 -63.5t-27.5 -61.5t-8 -44q0 -66 80 -66h16q39 0 78 20.5t68 41.5q16 10 28.5 17t16.5 7q10 0 35.5 -19.5t51 -53 t46 -76.5t20.5 -92q0 -45 -12 -100.5t-45 -102.5t-90 -80t-148 -33q-31 0 -71.5 6.5t-87.5 37t-100.5 94t-108.5 178.5q-18 -70 -75.5 -120t-129.5 -54h-29q-55 0 -117.5 19.5t-121 60t-107.5 105t-78 155.5q-16 47 -26.5 99t-24.5 112l-6 28q-23 109 -27 221q14 -8 36 -18 t36 -21q20 -133 61 -244.5t94.5 -191.5t116 -124t125.5 -44q92 0 156 47.5t64 124.5q0 31 -14.5 66t-37.5 35q-10 0 -31.5 -10.5t-50.5 -22.5t-59.5 -22.5t-48.5 -10.5q-90 0 -145.5 62.5t-55.5 179.5q0 80 35 151.5t88 120.5h-383zM354 901q0 -72 78 -72t178 76q8 8 21 8 q18 0 40.5 -16t44 -47t40 -73t28.5 -91l17 -88q10 -49 41.5 -97t76 -86t96.5 -60.5t103 -22.5q39 0 75 13t61.5 37t41 54.5t15.5 67.5q0 16 -8.5 34.5t-28.5 41.5q-10 -8 -29.5 -19.5t-43 -22t-49.5 -17.5t-50 -7q-49 0 -89 18.5t-69 50t-44 72.5t-15 86q0 16 4 43t10 54 q8 31 16 63q-57 12 -110 29q-47 14 -99.5 33.5t-93.5 46.5q-10 6 -26.5 20t-33.5 31.5t-30.5 34t-17.5 26.5q-37 0 -64.5 -24.5t-46 -58t-29 -72.5t-10.5 -66zM1264 -4q33 -8 68.5 -28.5t69.5 -47t62.5 -55.5t48.5 -49l11 -17v369z" />
<glyph horiz-adv-x="1429" d="M-121 1319h1426l112 -115h-635q-25 0 -57 -30q-37 -29 -37 -48q0 -29 30 -51t81 -41q41 -12 78.5 -20t70.5 -8q29 0 89.5 15t142.5 42l174 -182q-102 -82 -160.5 -217.5t-60.5 -321.5v-692l-62 53v-2l-33 92q-10 18 -25.5 43t-31.5 41q-29 29 -58.5 52.5t-54.5 33.5v-405 l-123 178q-123 201 -333 229h2l-131 148q25 2 108 53l90 51q-98 31 -171.5 108.5t-125.5 196.5q-45 117 -69.5 260.5t-24.5 319.5l60 -37q0 -18 -1.5 -34.5t-1.5 -35.5q-4 -203 109 -389q61 -102 140 -157.5t175 -55.5q88 0 172 39q111 49 111 127q0 31 -17.5 64.5 t-50.5 33.5q-12 0 -92 -28q-72 -29 -123 -29q-115 0 -190 92q-78 90 -78 209q0 70 53 162q57 94 121 141h-483zM397 825q0 -84 90 -84q20 0 53 12.5t74 30.5l127 64q74 -31 133 -133q29 -53 44.5 -102.5t15.5 -90.5q0 -102 -66 -190v-256q8 -4 23.5 -16.5t31 -27t31 -30.5 t27.5 -29l61 -82v551q0 285 78 428q-94 0 -168.5 11.5t-128.5 31.5q-119 51 -225 187l-10 4q-29 0 -59.5 -28.5t-63.5 -82.5q-68 -109 -68 -168zM485 80q76 -41 160 -119q88 -80 125 -145h4v426l-156 -76q-8 -4 -41.5 -25.5t-91.5 -60.5z" />
<glyph horiz-adv-x="1585" d="M-117 1319h1596l112 -115h-868q-8 -23 -8 -65q0 -37 13 -90.5t33.5 -97.5t37 -69.5t57.5 -54.5q29 53 38 67.5t58 78.5q14 16 33 31.5t41 33.5q80 61 158 70q51 4 102 -9.5t91 -42t68 -70.5t32 -95q8 -98 -101 -195q106 -106 115 -209q8 -88 -50.5 -144t-170.5 -64 q-211 -18 -363 208q-49 -272 -307 -286q-297 14 -434 317q-39 76 -76 214t-70 345l68 -35q31 -129 55.5 -220t42.5 -138q27 -72 68 -130t90 -99t104.5 -63.5t110.5 -22.5q53 0 101.5 16t85 44t58 65.5t21.5 80.5q0 23 -7 50.5t-23 62.5q-86 -90 -240 -100 q-127 0 -192.5 70.5t-65.5 197.5q0 43 15.5 94t41 100.5t59 90.5t68.5 63h-485zM399 827q0 -59 27 -84.5t80 -25.5q121 0 231 110q-26 32 -61 91q-53 82 -92 163q-31 0 -63 -28.5t-59.5 -68.5t-45 -83t-17.5 -74zM895 725q0 -63 37 -123.5t87 -109t113.5 -76t127.5 -23.5 q57 6 100 44t37 89q-4 53 -74 119q-61 -53 -119 -57q-92 -4 -121 96q-10 66 27 104.5t92 42.5q49 4 88 -43q70 70 66 121q-2 23 -19.5 42.5t-43 31.5t-55.5 17.5t-54 3.5q-27 -2 -76 -35t-97 -77t-82 -90t-34 -77z" />
<glyph horiz-adv-x="1402" d="M-121 1319h1426l112 -115h-635q-25 0 -57 -30q-37 -29 -37 -48q0 -29 30 -51t81 -41q41 -12 78.5 -20t70.5 -8q29 0 89.5 15t142.5 42l174 -182q-90 -86 -140.5 -221.5t-52.5 -317.5q8 -131 26.5 -256t47.5 -246l-121 107q-61 59 -162 53l-366 -49q-98 -12 -174 -12 q-43 0 -81 3t-69 11q-86 25 -141 90.5t-74 155.5q-4 35 -2 87t14 117q12 -10 25.5 -17t26.5 -15q-8 -12 -9.5 -35t2.5 -45q16 -86 65.5 -137.5t137.5 -57.5q98 8 210 18.5t233 22.5q104 0 201.5 -31.5t152.5 -97.5l4 2q-25 96 -35 185.5t-14 179.5v145q2 184 59 350 q-94 0 -167.5 11.5t-127.5 31.5q-119 51 -225 187l-10 4q-29 0 -59.5 -28.5t-63.5 -82.5q-68 -109 -68 -168q0 -84 90 -84q20 0 53 12.5t74 30.5l127 64q74 -31 133 -133q29 -53 44.5 -102.5t15.5 -90.5q0 -131 -98 -225q-90 -96 -224 -96q-297 0 -428 321 q-47 117 -70.5 259.5t-23.5 320.5l60 -37q0 -18 -1.5 -34.5t-1.5 -35.5q-4 -203 109 -389q61 -102 140 -157.5t175 -55.5q88 0 172 39q111 49 111 127q0 31 -17.5 64.5t-50.5 33.5q-12 0 -92 -28q-72 -29 -123 -29q-115 0 -190 92q-78 90 -78 209q0 70 53 162q57 94 121 141 h-483z" />
<glyph horiz-adv-x="1402" d="M-121 1319h1426l112 -115h-635q-25 0 -57 -30q-37 -29 -37 -48q0 -29 30 -51t81 -41q41 -12 78.5 -20t70.5 -8q29 0 89.5 15t142.5 42l174 -182q-78 -86 -123 -221.5t-49 -317.5v-313v-451q-29 16 -58.5 45t-56.5 70q-63 90 -102 123q-37 29 -96.5 43t-127.5 16l-102 141 q117 80 223.5 152t206.5 137v215q-4 186 49 350q-94 0 -167.5 11.5t-127.5 31.5q-119 51 -225 187l-10 4q-29 0 -59.5 -28.5t-63.5 -82.5q-68 -109 -68 -168q0 -84 90 -84q20 0 53 12.5t74 30.5l127 64q74 -31 133 -133q29 -53 44.5 -102.5t15.5 -90.5q0 -131 -98 -225 q-90 -96 -224 -96q-297 0 -428 321q-47 117 -70.5 259.5t-23.5 320.5l60 -37q0 -18 -1.5 -34.5t-1.5 -35.5q-4 -203 109 -389q61 -102 140 -157.5t175 -55.5q88 0 172 39q111 49 111 127q0 31 -17.5 64.5t-50.5 33.5q-12 0 -92 -28q-72 -29 -123 -29q-115 0 -190 92 q-78 90 -78 209q0 70 53 162q57 94 121 141h-483zM811 -29q152 -35 270 -186v360q-45 -27 -114.5 -70.5t-155.5 -103.5z" />
<glyph horiz-adv-x="1329" d="M-121 1319h959v-606q102 -66 200 -209v1030q10 -12 25.5 -22.5t26.5 -20.5q-4 -41 4 -78t34 -70q53 -37 115 -24l115 -115h-201v-1034l-51 51v-2q-49 150 -90 213q-31 43 -75 81t-103 67v-666q-16 14 -105 123q-57 66 -155 78h-201q-70 2 -133.5 13t-122.5 34 q-86 35 -120 92t-36 145q0 68 41 203l43 -43q-16 -23 -14 -76q2 -43 11 -73.5t27.5 -51t45 -34t67.5 -25.5q43 -10 81 -10t73 -4q160 -16 250 -61.5t141 -123.5l4 2v88q-188 358 -518 388h2l-156 198q147 106 316.5 201.5t349.5 161.5v65h-739zM307 731q281 -131 418 -395h4 v625q-104 -35 -208.5 -93.5t-213.5 -136.5z" />
<glyph horiz-adv-x="1513" d="M16 1010q0 121 129 198h-2q115 66 244 66q90 0 182 -62q98 -66 136 -143v361l110 -130v-360q23 63 59.5 121.5t90.5 112.5q59 53 122.5 82.5t122.5 29.5q100 0 164 -90q23 -39 37 -89t14 -99q0 -160 -94 -230q104 -78 105 -246q0 -51 -16.5 -95t-46.5 -76.5t-71 -52 t-90 -19.5q-152 0 -270 153q-55 68 -87 142.5t-46 154.5v-747l-33 28v-2q-113 219 -207 295q-113 86 -342 111l-135 225q137 92 276.5 179t272.5 159q-39 182 -281 182q-129 0 -143 -88l10 -24q82 6 82 -94q0 -49 -39 -89t-90 -40q-78 0 -121 48t-43 128zM338 586 q127 -61 215 -135t149 -160v536q-106 -70 -199 -131t-165 -110zM842 842q0 -106 112 -250q113 -145 215 -146q63 0 121 41q55 43 56 105q0 66 -72 117q-63 -51 -129 -52q-104 14 -113 142q-4 66 39 105.5t103 39.5q51 0 98 -47q78 47 78 100q0 59 -45.5 90t-104.5 31 q-43 0 -100.5 -26.5t-118.5 -69.5q-68 -51 -103.5 -95t-35.5 -85z" />
<glyph horiz-adv-x="1400" d="M16 1010q0 121 129 198h-2q115 66 244 66q90 0 182 -62q98 -66 131 -143h5v361q29 -35 55 -65t55 -65v-360h4q18 63 55 121.5t91 112.5q59 53 122.5 82.5t122.5 29.5q100 0 164 -90q23 -39 37 -89t14 -99q0 -160 -94 -230q104 -78 105 -246q0 -51 -16.5 -95t-46.5 -76.5 t-70.5 -52t-90.5 -19.5q-152 0 -270 153q-55 68 -87 142.5t-42 154.5h-4v-399v-614q-29 14 -57.5 42.5t-59.5 69.5q-33 47 -58.5 78t-41.5 45q-37 29 -96.5 43t-126.5 16l-105 142l82 57q45 31 91 61.5t89 59.5q-109 66 -297 84l-137 225q137 92 276.5 179t272.5 159 q-39 182 -281 182q-129 0 -143 -88l10 -24q82 6 82 -94q0 -49 -39 -89t-90 -40q-78 0 -121 48t-43 128zM338 586q127 -61 215 -135t145 -162l4 2v536q-106 -70 -199 -131t-165 -110zM436 119q156 -35 271 -189v213q-16 31 -35 55.5t-35 47.5h-4zM842 842q0 -106 112 -250 q113 -145 215 -146q63 0 121 41q55 43 56 105q0 66 -72 117q-63 -51 -129 -52q-113 0 -113 129q0 61 41 109.5t101 48.5q51 0 98 -47q78 47 78 100q0 59 -45.5 90t-104.5 31q-43 0 -100.5 -26.5t-118.5 -69.5q-68 -51 -103.5 -95t-35.5 -85z" />
<glyph horiz-adv-x="1257" d="M70 1087q0 63 22.5 113.5t61.5 86.5t93 55.5t115 19.5q111 0 196 -56.5t114 -160.5q55 86 143 151q98 74 186 74q41 0 76 -18.5t59.5 -49t39 -69.5t14.5 -80q0 -102 -72 -190q90 -84 90 -203q-4 -190 -166 -203q-147 0 -249.5 93t-147.5 243l-96 -92q23 -43 166 -170 q117 -109 116 -189q0 -147 -153 -211q186 -72 315 -152.5t197 -170.5q2 -25 5 -48.5t5 -45.5q-160 160 -414 254q-92 29 -229 59.5t-324 60.5h3q-33 53 -67 107.5t-69 107.5q82 -43 162 -66.5t158 -23.5q76 0 172 45q106 57 106 129q0 47 -55 78q-111 -158 -248 -157 q-115 0 -217 67q-47 37 -74.5 85t-27.5 104q0 55 34.5 101t96.5 79l244 98q137 61 137 162q0 27 -13.5 51.5t-35 43t-49 29.5t-58.5 11q-125 0 -168 -106q66 -35 66 -91q0 -119 -117 -118q-143 0 -143 163zM219 610q0 -59 115 -59q47 0 117 33q80 33 79 75v3 q-12 14 -28.5 35.5t-32.5 52.5q-37 -14 -74 -26.5t-73 -25.5q-102 -41 -103 -88zM709 967q0 -102 94 -189q92 -86 192 -86q41 0 78 27.5t37 68.5q0 45 -63 97q-35 -53 -82 -54q-45 0 -80 38t-35 83q0 100 100 101q33 0 66 -21q70 39 69 103q0 76 -84 75q-106 0 -194 -67 q-49 -39 -73.5 -81t-24.5 -95z" />
<glyph horiz-adv-x="1304" d="M61 877q10 -6 26.5 -14.5t29.5 -12.5l12 -129q23 -195 100 -318q111 -164 269 -161q225 10 209 272q-100 -72 -209 -78q-98 -2 -161 55.5t-69 155.5q-2 106 121 240q162 164 182 203q-2 121 -125 118q-72 -4 -100 -96q33 -31 43 -92q-4 -53 -33.5 -82t-76.5 -31 q-145 4 -154 152q4 236 258 244q215 6 289 -150q135 141 317 147q98 4 166 -48t74 -150q-4 -43 -21.5 -79t-56.5 -69q80 -70 82 -125q2 -121 -94 -190l114 -78q-80 -51 -134 -132t-52 -204q2 -31 20.5 -79t59.5 -113l-55 -51q-59 94 -93 181t-38 159q-4 68 8 134t41 132 q-115 0 -166 28q-57 27 -113 107q-59 84 -98 180q-33 -2 -78 -29.5t-92 -70.5q-47 -47 -75 -89t-26 -73q6 -41 44 -64.5t79 -23.5q47 2 105 53q35 31 56.5 50.5t31.5 23.5q63 4 115 -115q35 -86 36 -162q2 -57 -16 -111t-54 -96t-88.5 -69t-115.5 -31q-463 -14 -494 781z M713 979q4 -115 86 -195q84 -80 196 -77q47 2 84 34.5t49 77.5q10 27 -18 55h-4q-35 -53 -111 -59q-57 -2 -93 37t-40 96q-2 51 32 87t85 40q53 0 90 -37q43 18 47 74q-10 96 -96 92q-43 -2 -90 -19.5t-103 -51.5q-115 -76 -114 -154z" />
<glyph horiz-adv-x="1794" d="M111 705q0 61 20 145q27 84 66 117l39 -37q-27 -39 -41.5 -84t-14.5 -98q0 -174 135 -224q35 -14 104.5 -23t182.5 -14q209 14 270 -32q49 -23 125 -88v761q0 78 -88 70q-84 0 -182 -104q-43 -47 -72.5 -93.5t-40.5 -93.5q37 6 62 6q37 0 69 -43q6 -16 13.5 -38.5 t7.5 -43.5q0 -55 -41 -85.5t-100 -30.5q-180 0 -181 202q0 145 146 295q150 145 297 146q225 20 225 -281v-71l-2 -70h4q45 82 148 182q53 49 106 77t98 28q96 0 164 -80q72 -80 72 -172q0 -123 -86 -211q84 -141 84 -240q2 -193 -174 -201q-86 0 -193 48v-768l-49 55v-2 q-74 209 -180 262v-414q-55 45 -137 170q-39 59 -73 101.5t-60 64.5q-41 35 -145.5 63.5t-172.5 26.5l-127 152q295 176 498 262q-35 53 -94 53q-25 0 -61 -4t-87 -8q-98 -10 -145 -10q-184 0 -286.5 96t-102.5 281zM653 2q80 -33 123 -60.5t88 -68.5q92 -90 125 -152h4v447 q-76 -27 -160.5 -69t-179.5 -97zM1112 -51q68 -35 113 -123h6v561q-49 35 -115 90l-4 -2v-526zM1114 705q12 -111 125 -195q115 -86 221 -86q57 0 111 27q59 31 59 92q0 33 -65 100l-60 -31q-14 -6 -32.5 -11t-28.5 -5q-25 0 -48.5 9t-41 24.5t-28.5 37t-11 44.5t10 44 t28.5 37.5t41 26.5t45.5 10q20 0 38.5 -3t57.5 -13l23 -2l16 10q35 43 35 97q0 49 -38 79.5t-87 30.5q-113 0 -230 -98q-141 -109 -141 -225z" />
<glyph horiz-adv-x="1480" d="M137 844q0 150 154 307q156 152 307 152q201 0 201 -263v-69l-4 -68h6q29 96 137 205q115 106 215 106q96 0 170 -81q72 -79 72 -181q0 -61 -21.5 -103t-68.5 -89q47 -86 67.5 -145.5t20.5 -102.5q0 -209 -183 -209q-90 -6 -192.5 45t-222.5 174q0 -14 -1 -39.5t-1 -57.5 v-67.5v-68.5q55 25 114 24q35 0 68 -8q158 -16 143 -328v-45.5t-2 -54.5q0 -8 -1 -14t-1 -17l-4 -96q0 -92 8 -175t27 -167q-164 72 -164 430q0 57 6 144l4 116q0 57 -184 -4v-678q-51 23 -109 119v-2q-31 53 -59.5 92t-48.5 62q-47 37 -111.5 59.5t-146.5 26.5l-115 151 q199 145 471 316v862q0 76 -65 76q-88 0 -191 -109q-90 -100 -117 -197q23 4 36.5 5.5t29.5 1.5q37 0 70 -45q8 -14 15 -38t7 -40q0 -57 -42 -92t-101 -35q-193 0 -193 215zM424 -125q82 -31 148.5 -83t119.5 -130v379q-59 -27 -127.5 -67t-140.5 -99zM801 721 q0 -57 29.5 -107.5t87.5 -97.5q55 -45 111 -53t114 -8q63 0 117 30q4 4 10 8.5t8 4.5q23 10 34 19t11 34q0 16 -18.5 55t-53.5 74l-59 -31q-16 -6 -34.5 -11t-29.5 -5q-51 0 -93 34.5t-42 82.5q0 49 40 86.5t87 37.5q29 0 51.5 -4t77.5 -16l11 10l14 17q12 18 19 29.5 t7 33.5q0 49 -39.5 83t-93.5 34q-113 0 -243 -115q-123 -113 -123 -225z" />
<glyph horiz-adv-x="1040" d="M-117 1319h889q14 35 21.5 52.5t7.5 23.5q0 82 -254 82q-23 0 -60.5 -1t-83.5 -6l-139 -4q-59 0 -114.5 19.5t-106.5 54.5q-111 86 -111 199q0 90 56 141l67 -39q-51 -27 -51 -121q0 -63 199 -78q72 -4 142.5 -5t141.5 -3q90 -4 157 -20.5t114 -46.5q117 -74 116 -248h68 l115 -115h-707v-614q0 -125 90 -125q119 0 197 57q90 68 84 180l-2 62q-147 45 -148 137q0 59 40 102.5t98 43.5q182 0 182 -259q0 -117 -92 -309q70 -137 69 -203q0 -129 -96 -202q-86 -68 -221 -68q-217 0 -369 176q-141 162 -162 379q10 -6 25.5 -12t28.5 -12 q78 -180 189.5 -278.5t234.5 -102.5q72 -16 164 22q125 61 124 129q0 66 -71 96q-74 -92 -234 -92q-250 4 -250 394v499h-235z" />
<glyph horiz-adv-x="1067" d="M-117 1319h912q29 63 28 76q0 82 -254 82q-23 0 -60.5 -1t-80.5 -6l-139 -4q-119 0 -221 74q-111 86 -111 199q0 92 53 141l68 -39q-49 -23 -49 -121q0 -63 196 -78q72 -4 143.5 -5t143.5 -3q90 -4 156.5 -20.5t111.5 -46.5q119 -74 119 -248h66l114 -115h-704v-614 q0 -125 90 -125q117 0 194 57q90 66 84 180l-2 62q-145 47 -145 137q0 59 39 102.5t98 43.5q180 0 180 -259q0 -57 -22.5 -133.5t-69.5 -175.5q72 -139 72 -203q0 -76 -35 -135v-612q-8 6 -32.5 37t-69.5 86q-59 70 -156 76l-121 8q-205 0 -317 47q-178 74 -178 237 q0 68 41 203l43 -43q-16 -18 -17 -78q12 -207 369 -217q231 -18 315 -139l4 2v291q-68 -33 -166 -33q-217 0 -366 176q-143 166 -162 379q10 -6 25.5 -12t25.5 -12q80 -180 190.5 -278.5t233.5 -102.5q74 -16 166 22q125 61 125 129q0 63 -74 96q-72 -92 -231 -92 q-250 4 -250 394v499h-260z" />
<glyph horiz-adv-x="1267" d="M-141 1319h985q0 16 1 34.5t1 35.5q2 109 -213 108q-76 -2 -150.5 -13t-150.5 -11q-123 0 -211 65q-96 70 -96 191q0 131 81 137q0 -8 3.5 -19.5t3.5 -21.5l-29 -60q2 -131 184 -131q78 0 153 8.5t152 10.5q377 0 377 -334h221l115 -115h-217v-1286q-16 8 -36.5 20.5 t-37.5 22.5q-10 29 -31.5 61.5t-50.5 67.5q-35 41 -62.5 63.5t-49.5 22.5q-2 -2 -6 -2t-8.5 -1t-10.5 -1q-8 -59 -54 -101t-106 -42q-29 0 -56.5 8t-50 24.5t-36.5 43t-16 65.5q2 37 16 70.5t40 59.5t62.5 39t83.5 7q8 119 -73 182q-121 -98 -271 -98q-203 2 -202 291l2 483 h-152zM248 641q0 -84 39 -84q123 0 217 78q47 41 61.5 87t22.5 99q-10 -2 -17.5 -3t-11.5 -1q-6 -2 -10 -2q-57 0 -93 37t-36 92q0 70 42 113t111 43q45 0 80 -15.5t61.5 -47t41 -73.5t14.5 -87q0 -143 -100 -277q49 -53 71.5 -122.5t6.5 -141.5q152 -66 204 -166h4v1034 h-708v-563z" />
<glyph horiz-adv-x="1085" d="M-117 1319h979q0 16 2 35.5t2 36.5q2 102 -145 102q-37 0 -107 -12q-35 -4 -60.5 -6t-41.5 -2q-131 0 -240 63q-125 72 -125 193q0 66 23 99.5t61 37.5q0 -8 2.5 -18.5t2.5 -20.5q-10 -10 -18.5 -26.5t-8.5 -35.5q0 -72 61 -104q51 -31 125 -31q25 0 59.5 3t82.5 7 q94 12 143 13q162 0 231 -90q61 -78 62 -244h117l114 -115h-813v-712q39 -78 111 -78q102 0 211 127q98 113 110 233l-39 -6q-27 2 -53 13.5t-46.5 29.5t-34 42t-13.5 52q0 66 40 111t105 45q100 0 162 -96q23 -37 36 -87.5t13 -101.5q0 -80 -30 -162v-852q4 -4 -11.5 8.5 t-31.5 24.5q-16 25 -31 46.5t-25 41.5q-57 59 -128.5 76.5t-166.5 17.5q-25 0 -48 -1t-52 -1q-33 -2 -66.5 -2h-70.5q-303 0 -303 312q0 66 41 200l43 -43q-10 -10 -13.5 -34.5t-3.5 -65.5q0 -102 77 -156.5t200 -52.5h47t90 -4q35 -2 67.5 -5t67.5 -5q59 -10 95 -35t71 -68 l16 -22l33 -49v504q-154 -184 -319 -185q-109 0 -174.5 67.5t-87.5 190.5v682h-291z" />
<glyph horiz-adv-x="1017" d="M-129 1319h870q0 16 1 35.5t1 36.5q2 102 -143 102q-33 0 -106 -12q-35 -4 -59.5 -6t-43.5 -2q-131 0 -241 63q-121 68 -121 193q0 131 84 137q0 -8 2 -18.5t2 -20.5q-29 -25 -29 -62q0 -72 59 -104q55 -31 127 -31q25 0 61 3t83 7q92 12 141 13q154 0 232 -90 q61 -80 61 -244h63l115 -115h-760v-618q39 -82 111 -82q106 0 190 92q90 90 91 178l-39 -6q-27 2 -53.5 13.5t-47 29.5t-34 42t-13.5 52q0 66 40 111t106 45q100 0 161 -96q23 -37 36 -87.5t13 -101.5q0 -119 -124 -268q-119 -152 -287 -152q-109 0 -174.5 68t-85.5 190v590 h-185zM172 260q117 78 230.5 156t213.5 141l101 -20v-715q-29 14 -57.5 43t-59.5 69q-29 45 -55.5 76t-44.5 47q-39 29 -98.5 44.5t-125.5 17.5zM344 215q154 -35 270 -184v358q-45 -29 -114.5 -72t-155.5 -102z" />
<glyph horiz-adv-x="1056" d="M-133 1319h625l-134 233q-70 145 -69 238q0 141 123 246l133 -115q-84 -35 -122 -79t-38 -97q0 -94 86 -232q35 -57 72 -105t78 -89h335l121 -115h-383q43 -43 85 -104.5t81 -143.5q84 -162 84 -284q0 -16 -1 -32.5t-3 -33.5v-428v-428l-51 41l-125 137q-66 53 -186 54 q-27 0 -68 -3.5t-94 -7.5q-47 -4 -90 -7t-72 -3q-53 12 -96 38t-74 68t-48.5 101t-17.5 143q0 68 2.5 112t10.5 62l104 -77q-16 -12 -25.5 -40t-9.5 -73q0 -133 160 -160l242 -20q111 -16 198.5 -62.5t135.5 -122.5l-2 443q-59 -72 -131 -110t-156 -42q-164 -6 -268 94 q-100 106 -101 248q0 53 19 96q72 20 136 58.5t118 91.5q123 117 122 240q0 90 -24 155h-563zM319 477q0 -176 179 -172q154 10 252 141q88 115 88 259q0 211 -144 366l-4 -2q4 -23 6 -44t2 -40q0 -76 -25.5 -144.5t-72.5 -121.5q-27 -29 -72 -65t-110 -76q-98 -61 -99 -101 z" />
<glyph horiz-adv-x="1980" d="M-121 1319h1249l111 -115h-651v-465q57 -8 99 17.5t77 67.5t66.5 88t68.5 79q51 -29 90 -71.5t64.5 -95t40 -111t14.5 -115.5q0 -197 -109 -322q-113 -131 -309 -131q-512 0 -604 981l76 -36q12 -131 45 -256t84 -222q137 -264 385 -264q90 -2 171 42t129 111.5t50 149.5 t-68 154q-16 -49 -50 -90t-78 -72t-94 -51.5t-99 -26.5q-160 0 -160 246v393h-483zM880 991q0 141 131 234q59 41 126 60.5t141 19.5q182 0 284 -119q70 -82 150 -305l-19 331q-4 100 -7 180.5t-3 145.5l66 -65q-4 -16 -4 -33q-4 -125 102 -123q12 0 33 2l114 -115h-208 v-1229l-129 158q2 307 6 461q2 90 2 154q0 68 -27 138t-74 136q-111 145 -241 145q-199 0 -275 -182q86 37 150 37q49 0 91 -13.5t73 -35.5q33 -29 51 -67t18 -87q0 -66 -62.5 -165t-172.5 -220l-133 152q27 18 63.5 54t77.5 83q49 53 76.5 92t27.5 57q0 55 -67 56 q-25 0 -111 -51q-41 -23 -71.5 -36.5t-49.5 -13.5q-45 0 -90 58q-39 51 -39 106z" />
<glyph horiz-adv-x="2101" d="M-129 1319h2134l111 -115h-664v-391q2 -68 41 -68q23 0 58.5 27t80.5 74q35 33 70 70.5t63 74.5q41 -25 82 -67.5t74 -98.5q25 -57 39 -114.5t14 -112.5q0 -186 -92 -311q-106 -143 -285 -144q-127 0 -225 74q-35 27 -77 73t-81 103l-122 207q-80 -344 -385 -346 q-279 0 -449 311q-131 233 -170 561l68 -36q41 -135 83 -242t80 -170q70 -109 159 -166t200 -57q160 -10 256 86q94 94 94 221q0 80 -67 147q-86 -111 -169 -173t-157 -62q-164 0 -164 327v203h-485zM590 881q25 -43 88 -17q33 16 90 76.5t133 159.5q49 -27 95 -93.5 t89 -164.5q51 -129 91.5 -223.5t58.5 -116.5q53 -78 131 -121t170 -47q72 -4 134.5 18.5t109.5 65.5t75.5 105.5t32.5 140.5q0 63 -82 137q-92 -117 -166.5 -178.5t-146.5 -61.5q-164 0 -164 383v260h-739v-323z" />
<glyph horiz-adv-x="1640" d="M-127 1319h1683l113 -115h-223v-221v-264t1 -284.5t1 -285v-264.5v-221q-14 6 -43 52t-76 126v-2q-43 84 -86 135.5t-82 55.5q-14 -59 -59 -100.5t-105 -41.5q-72 0 -121 45.5t-49 116.5q0 35 12.5 68t33 57.5t49 38.5t63.5 14h39q6 14 3 35t-12 43.5t-23.5 46 t-28.5 41.5q-94 -94 -254 -119q-139 0 -250 66t-199 223q-129 229 -170 561l68 -36q41 -135 82 -242t82 -170q72 -111 159.5 -158t198.5 -47q61 4 117.5 27.5t97.5 62.5t65.5 92.5t24.5 114.5q0 78 -70 148l-18 -23q-72 -98 -132 -159.5t-128 -61.5q-164 0 -164 327v203 h-485zM592 881q0 -35 25.5 -41t66.5 24q29 23 70 77t100 163q41 -29 93 -93.5t93 -162.5q27 -88 27 -174q0 -123 -61 -223q35 -35 74.5 -96.5t52.5 -151.5q35 -37 69 -74q29 -33 61.5 -74t57.5 -84h4v1233h-733v-323z" />
<glyph horiz-adv-x="1232" d="M-121 1319h1249l111 -115h-651v-465q57 -8 99 17.5t77 67.5t66.5 88t68.5 79q51 -29 90 -71.5t64.5 -95t40 -111t14.5 -115.5q0 -197 -109 -322q-113 -131 -309 -131q-512 0 -604 981l76 -36q12 -131 45 -256t84 -222q137 -264 385 -264q90 -2 171 42t129 111.5t50 149.5 t-68 154q-16 -49 -50 -90t-78 -72t-94 -51.5t-99 -26.5q-160 0 -160 246v393h-483zM116 224q0 35 10.5 85t28.5 115l43 -43q-14 -20 -14 -78q0 -182 174 -221q66 -14 134.5 -13t164.5 -1q211 -18 313 -176v581l103 103v-875q-8 8 -33 39t-72 84q-59 70 -159 84h-98.5h-98.5 q-100 0 -181 8.5t-139 30.5q-82 39 -129 107.5t-47 169.5z" />
<glyph horiz-adv-x="1214" d="M-125 1319h1249l111 -115h-651v-465q88 0 178 90q31 39 65.5 81t67.5 81q45 -23 84 -64.5t68 -101.5q29 -55 43 -111.5t14 -115.5q0 -197 -109 -322q-113 -131 -309 -131q-512 0 -604 981l76 -36q12 -131 45 -256t84 -222q137 -264 385 -264q135 0 241 84q109 86 109 217 q0 82 -68 156q-10 -43 -45 -83t-88 -81q-53 -35 -100 -55.5t-88 -20.5q-160 0 -160 246v393h-483zM358 20q117 80 232 157t215 140q10 -8 26.5 -21t32.5 -36q39 -45 39 -63v-615q-29 16 -57.5 45t-59.5 70q-33 47 -58.5 76.5t-41.5 46.5q-37 29 -95.5 43t-125.5 16zM530 -25 q150 -31 273 -186v361q-96 -55 -273 -175z" />
<glyph horiz-adv-x="1191" d="M-117 1319h1207l114 -115h-798v-712q41 -78 112 -78q102 0 211 127q98 117 109 233l-35 -6q-29 2 -55.5 13.5t-48 29.5t-35 42t-13.5 52q0 66 42 111t108 45q96 0 160 -96q23 -37 36 -87.5t13 -101.5q0 -76 -29 -162v-854l-43 35l-57 86q-55 61 -127 78.5t-168 17.5 q-23 0 -48.5 -1t-52.5 -1q-33 -2 -66.5 -2h-70.5q-303 0 -303 312q0 35 9 85t32 115l43 -43q-14 -14 -14 -100q0 -102 75.5 -156.5t196.5 -52.5h48t89 -4q35 -2 69 -5t69 -5q59 -10 95 -34t70 -69v2q10 -16 19.5 -31.5t19.5 -27.5l11 -12v502q-154 -184 -322 -185 q-106 0 -172 67.5t-88 190.5v682h-307z" />
<glyph horiz-adv-x="1509" d="M31 1030q0 131 94 223q90 92 227 93q113 0 201 -82q92 -82 106 -191h5v246h456q4 16 5 35.5t-1 36.5q-10 102 -145 102l-201 -6l-200 -8q-129 -2 -240 55h2q-121 74 -123 195q0 115 84 137q0 -8 2 -18.5t2 -20.5q-10 -10 -19.5 -26.5t-9.5 -35.5q0 -72 62 -104 q55 -31 127 -31q20 0 64 2t114 6q12 0 26.5 1t30.5 1q190 12 238 13q164 0 229 -90q63 -80 64 -244h182l113 -115h-735v-801q39 -78 110 -77q80 0 186 125q100 115 113 235l-39 -4q-57 0 -102 39t-45 98q0 63 40 108.5t105 45.5q98 0 162 -96q20 -37 34.5 -87.5t14.5 -101.5 q0 -170 -141 -336q-145 -176 -289 -176q-106 0 -173 67.5t-87 190.5v213q0 102 -16.5 191.5t-45.5 156.5q-41 92 -107.5 141.5t-158.5 49.5q-180 0 -180 -189q0 -47 16 -96q25 -63 70 -63l6 12l-8 55q0 102 119 109q127 0 127 -142q0 -72 -51.5 -124t-122.5 -52 q-141 0 -226 95q-37 45 -54 105t-17 134z" />
<glyph horiz-adv-x="1513" d="M31 1030q0 131 94 223q90 92 227 93q113 0 201 -82q92 -82 106 -191h5v246h456q4 16 5 35.5t-1 36.5q-10 102 -145 102q-53 0 -101.5 -2t-97.5 -4q-47 -4 -97 -6t-105 -2q-129 -2 -240 55h2q-121 74 -123 195q0 115 84 137q0 -8 2 -18.5t2 -20.5q-10 -10 -19.5 -26.5 t-9.5 -35.5q0 -72 62 -104q55 -31 127 -31q74 0 136.5 4t121.5 8q53 4 105.5 7.5t109.5 3.5q164 0 229 -90q63 -80 64 -244h182l113 -115h-735v-801q39 -78 110 -77q80 0 186 125q100 115 113 235l-39 -4q-57 0 -102 39t-45 98q0 63 40 108.5t105 45.5q98 0 162 -96 q20 -37 34.5 -87.5t14.5 -101.5q0 -55 -14.5 -108.5t-40.5 -106.5v-743q-10 6 -37 38.5t-70 86.5q-57 68 -151 73h-205q-203 0 -320 47q-178 78 -178 240q0 35 11.5 86t29.5 117l43 -43q-14 -23 -14 -76q0 -186 174 -188q92 -6 159.5 -12.5t114.5 -10.5q231 -18 318 -139 l4 2v362q-131 -137 -254 -137q-106 0 -173 67.5t-87 190.5v213q0 102 -16.5 191.5t-45.5 156.5q-41 92 -107.5 141.5t-158.5 49.5q-180 0 -180 -189q0 -47 16 -96q25 -63 70 -63l6 12l-8 55q0 102 119 109q127 0 127 -142q0 -72 -51.5 -124t-122.5 -52q-141 0 -226 95 q-37 45 -54 105t-17 134z" />
<glyph horiz-adv-x="1206" d="M31 1030q0 131 94 223q90 92 227 93q139 0 242 -115q98 -117 98 -264q0 -16 -1 -31.5t-3 -32.5l4 -2q41 59 41 109q0 127 -137 374q-135 248 -135 381q0 152 135 254l121 -125q-143 -57 -144 -188q0 -172 185 -387h348l115 -115h-377q231 -311 231 -620q0 -203 -119 -348 q-127 -154 -321 -154q-158 0 -277 108q-115 115 -114 273q0 92 100 153h-2l195 105q96 61 96 168q0 297 -281 297q-131 -12 -178 -119q-12 -49 -12 -86q0 -53 20 -86q35 -51 76 -57l6 12q-4 14 -4 23.5t-2 17.5t-2 14q0 100 117 105q129 -4 129 -138q0 -72 -51.5 -124 t-122.5 -52q-141 0 -226 95q-37 45 -54 105t-17 134zM406 379q0 -39 16 -74t43 -60.5t61.5 -40t73.5 -14.5q154 0 266 160q51 72 75 148.5t24 158.5q0 182 -134 359q-8 -92 -27.5 -162t-47.5 -121q-49 -90 -197 -184q-152 -98 -153 -170z" />
<glyph horiz-adv-x="1206" d="M31 1030q0 131 94 223q90 92 227 93q139 0 242 -115q98 -117 98 -264q0 -16 -1 -31.5t-3 -32.5l4 -2q41 59 41 109q0 127 -137 374q-135 248 -135 381q0 152 135 254l121 -125q-143 -57 -144 -188q0 -172 185 -387h348l115 -115h-377q231 -311 231 -620q0 -203 -119 -348 q-127 -154 -321 -154q-158 0 -277 108q-115 115 -114 273q0 92 100 153h-2l195 105q96 61 96 168q0 297 -281 297q-131 -12 -178 -119q-12 -49 -12 -86q0 -53 20 -86q35 -51 76 -57l6 12q-4 14 -4 23.5t-2 17.5t-2 14q0 100 117 105q129 -4 129 -138q0 -72 -51.5 -124 t-122.5 -52q-141 0 -226 95q-37 45 -54 105t-17 134zM76 113q0 66 41 198l43 -43q-16 -20 -17 -75q0 -184 174 -189q92 -4 161 -9t116 -11q231 -18 317 -142l4 2v535q31 16 60 35.5t59 36.5v-826q-10 6 -35.5 39t-68.5 84q-29 33 -67 52.5t-87 23.5h-205q-205 0 -317 47 q-178 74 -178 242zM406 379q0 -39 16 -74t43 -60.5t61.5 -40t73.5 -14.5q154 0 266 160q51 72 75 148.5t24 158.5q0 182 -134 359q-8 -92 -27.5 -162t-47.5 -121q-49 -90 -197 -184q-152 -98 -153 -170z" />
<glyph horiz-adv-x="1126" d="M18 1161l52 -47v2q31 -129 85 -250t124 -229q98 -150 217.5 -232.5t259.5 -82.5q68 0 121 44t53 123q0 43 -33 70q-45 -39 -94 -39q-31 0 -60.5 12.5t-51 34t-35 49t-13.5 56.5q0 51 44 89t97 38q47 0 82 -23l31 2q47 35 47 92q2 143 -78 226l-131 -185l-45 76 q0 10 1 19.5t1 19.5q0 33 -15 59.5t-41 45t-58.5 28.5t-67.5 10q-70 0 -121 -42t-55 -105q-6 -78 47 -109l22 7q4 119 89 114q66 12 104 -88q-4 -70 -45 -110.5t-119 -40.5q-94 0 -156 71q-59 68 -59 160q0 113 68 205q76 100 188 100q96 0 145 -59q41 -35 87 -146 q31 47 61.5 95.5t60.5 95.5q98 -123 160 -291q66 -170 66 -248q0 -84 -97 -172q104 -117 105 -250q-6 -90 -96 -151q-88 -63 -201 -64q-309 0 -543 387v-2q-166 299 -203 635z" />
<glyph horiz-adv-x="1126" d="M18 1161l52 -47v2q31 -129 85 -250t124 -229q98 -150 217.5 -232.5t259.5 -82.5q68 0 121 44t53 123q0 43 -33 70q-45 -39 -94 -39q-31 0 -60.5 12.5t-51 34t-35 49t-13.5 56.5q0 51 44 89t97 38q47 0 82 -23l31 2q47 35 47 92q2 143 -78 226l-131 -185l-45 76 q0 10 1 19.5t1 19.5q0 33 -15 59.5t-41 45t-58.5 28.5t-67.5 10q-70 0 -121 -42t-55 -105q-6 -78 47 -109l22 7q4 119 89 114q66 12 104 -88q-4 -70 -45 -110.5t-119 -40.5q-94 0 -156 71q-59 68 -59 160q0 113 68 205q76 100 188 100q96 0 145 -59q41 -35 87 -146 q31 47 61.5 95.5t60.5 95.5q43 -57 85 -132t75 -147q66 -162 66 -260q0 -84 -97 -172q104 -117 105 -250q-6 -90 -96 -151q-88 -63 -201 -64q-309 0 -543 387v-2q-166 299 -203 635zM94 199q0 35 11.5 85t29.5 115l43 -43q-14 -20 -14 -73q0 -182 174 -195q51 -4 107.5 -8 t119.5 -8q231 -20 316 -142l6 2v297l119 74v-590q-10 8 -36 40t-69 83q-29 33 -66.5 52.5t-86.5 23.5h-203q-164 0 -273 47q-178 76 -178 240z" />
<glyph horiz-adv-x="1509" d="M31 1030q0 131 94 223q90 92 227 93q113 0 201 -82q92 -82 106 -191h5v246h749l113 -115h-735v-801q39 -78 110 -77q80 0 186 125q100 115 113 235l-39 -4q-57 0 -102 39t-45 98q0 63 40 108.5t105 45.5q98 0 162 -96q20 -37 34.5 -87.5t14.5 -101.5q0 -170 -141 -336 q-145 -176 -289 -176q-106 0 -173 67.5t-87 190.5v213q0 102 -16.5 191.5t-45.5 156.5q-41 92 -107.5 141.5t-158.5 49.5q-180 0 -180 -189q0 -47 16 -96q25 -63 70 -63l6 12l-8 55q0 102 119 109q127 0 127 -142q0 -72 -51.5 -124t-122.5 -52q-141 0 -226 95 q-37 45 -54 105t-17 134z" />
<glyph horiz-adv-x="1513" d="M31 1030q0 131 94 223q90 92 227 93q113 0 201 -82q92 -82 106 -191h5v246h749l113 -115h-735v-801q39 -78 110 -77q80 0 186 125q100 115 113 235l-39 -4q-57 0 -102 39t-45 98q0 63 40 108.5t105 45.5q98 0 162 -96q20 -37 34.5 -87.5t14.5 -101.5q0 -55 -14.5 -108.5 t-40.5 -106.5v-743q-10 6 -37 38.5t-70 86.5q-57 68 -151 73h-205q-203 0 -320 47q-178 78 -178 240q0 35 11.5 86t29.5 117l43 -43q-14 -23 -14 -76q0 -186 174 -188q92 -6 159.5 -12.5t114.5 -10.5q231 -18 318 -139l4 2v362q-131 -137 -254 -137q-106 0 -173 67.5 t-87 190.5v213q0 102 -16.5 191.5t-45.5 156.5q-41 92 -107.5 141.5t-158.5 49.5q-180 0 -180 -189q0 -47 16 -96q25 -63 70 -63l6 12l-8 55q0 102 119 109q127 0 127 -142q0 -72 -51.5 -124t-122.5 -52q-141 0 -226 95q-37 45 -54 105t-17 134z" />
<glyph horiz-adv-x="1062" d="M82 995q-4 121 96 224q104 104 246 104q150 0 217 -98q82 -86 117 -215h4v532l61 -53q4 -41 8.5 -72t14.5 -47q27 -55 84 -55q10 0 31 4l120 -115h-209v-1243l-127 129v156q-16 90 -63 162q-74 115 -205 114q-86 0 -141 -46t-64 -111q-2 -29 2.5 -62t20.5 -61 q35 -63 92 -54l-8 62q0 88 102 88q55 0 93 -41t38 -90q0 -35 -16 -64.5t-43 -50t-61.5 -32t-71.5 -11.5q-127 0 -215 94q-45 47 -64.5 103.5t-17.5 118.5q-2 117 92 210q55 61 127 84v5q-102 18 -172 98q-92 94 -88 233zM240 995q-6 -63 20 -123q23 -39 47.5 -53t52.5 -10 l-8 61q0 94 111 95q53 0 94 -42t41 -98q0 -72 -63 -118q-12 -8 -24.5 -15.5t-23.5 -11.5v-4q113 -16 166 -90q29 -31 50.5 -66t37.5 -76h4v344q0 70 -19 134.5t-56 117.5q-78 119 -213 119q-90 0 -151.5 -48t-65.5 -116z" />
<glyph horiz-adv-x="1378" d="M53 924q0 84 28 154.5t75 127.5q104 117 268 117q121 0 217 -98q82 -86 117 -215h4v532l61 -53q4 -41 8.5 -72t14.5 -47q10 -23 32.5 -38t51.5 -13h346l113 -115h-199v-1317q-12 8 -42 53.5t-77 127.5q-43 78 -85 130t-83 58q-12 -59 -58 -99t-106 -40q-72 0 -121 44 t-49 115q0 72 45 125.5t113 53.5h39l-21 333q-2 66 -22.5 133.5t-60.5 118.5q-92 119 -230 119q-92 0 -158 -72q-63 -66 -63 -163q0 -33 7 -65t18 -56q31 -76 94 -76l8 10l-8 64q0 94 108 94q55 0 95 -43t40 -96q0 -37 -17 -68t-45 -52.5t-64.5 -32.5t-73.5 -11 q-135 0 -228 98q-92 100 -92 234zM872 426q43 -20 91.5 -81.5t99.5 -147.5h4v1007h-195v-778z" />
<glyph horiz-adv-x="1064" d="M-51 471q0 35 9 86t30 117l43 -43q-10 -12 -12.5 -30.5t-2.5 -47.5q0 -184 174 -219q72 -4 130.5 -11.5t111.5 -13.5q229 -20 336 -174l4 2v248l100 102v-538q-10 6 -35.5 37.5t-68.5 85.5q-57 68 -154 73h-202q-86 2 -158 15.5t-129 36.5q-82 39 -129 107.5t-47 166.5z M53 924q0 84 28 154.5t75 127.5q104 117 268 117q121 0 217 -98q82 -86 117 -215h4v532l61 -53q0 -90 34 -131t104 -39l114 -115h-203v-1196l-127 129v651q0 143 -83 252q-92 119 -230 119q-92 0 -158 -72q-63 -66 -63 -163q0 -33 7 -65t18 -56q31 -76 92 -76q10 0 13 2 t-3 12v-2q-4 14 -7 28.5t-3 33.5q6 90 110 94q55 0 95 -43t40 -96q0 -37 -17 -68t-45 -52.5t-64.5 -32.5t-73.5 -11q-135 0 -228 98q-92 100 -92 234z" />
<glyph horiz-adv-x="1064" d="M53 924q0 84 28 154.5t75 127.5q104 117 268 117q121 0 217 -98q82 -86 117 -215h4v532l61 -53q4 -41 8.5 -72t14.5 -47q27 -55 84 -55q10 0 31 4l120 -115h-209v-1380q-68 31 -131 127q-33 49 -60.5 83t-47.5 50q-43 29 -109.5 45t-138.5 18l-115 160q129 90 247 168 t228 148v165q0 143 -83 252q-92 119 -230 119q-92 0 -158 -72q-63 -66 -63 -163q0 -33 7 -65t18 -56q31 -76 92 -76q10 0 13 2t-3 12v-2q-4 14 -7 28.5t-3 33.5q6 90 110 94q55 0 95 -43t40 -96q0 -37 -17 -68t-45 -52.5t-64.5 -32.5t-73.5 -11q-135 0 -228 98 q-92 100 -92 234zM467 262l2 -4q80 -20 149.5 -63t126.5 -113v53v303q-49 -29 -118.5 -72.5t-159.5 -103.5z" />
<glyph horiz-adv-x="1222" d="M-115 1319h1227l117 -115h-1227zM49 1038l74 -41v2q80 -188 139.5 -310t97.5 -181q190 -285 424 -285q102 0 179 53q82 61 81 162q0 55 -69 113q-47 -47 -105 -47q-61 0 -101 38t-40 99q0 55 38 100t93 45q41 0 94 -24q86 39 86 137q0 61 -42 98t-101 37 q-217 0 -336 -170q72 -55 72 -139q0 -92 -117 -98q-154 6 -160 172q4 74 47 139.5t121 118.5q72 45 152 68.5t158 23.5q115 0 200 -80q90 -78 90 -190q0 -182 -86 -281q49 -49 72 -103.5t23 -115.5q0 -328 -349 -328q-457 0 -735 987z" />
<glyph horiz-adv-x="1222" d="M-115 1319h1227l117 -115h-1227zM49 1042l74 -38q78 -172 139.5 -293t97.5 -176q190 -246 424 -246q104 -4 177 26q86 43 83 154q0 55 -69 106q-25 -20 -50.5 -32.5t-54.5 -12.5q-61 0 -101 37t-40 95q0 53 38 97t93 44q23 0 45.5 -7.5t48.5 -17.5q86 39 86 129 q0 59 -42 94t-101 35q-217 0 -336 -164q72 -53 72 -133q0 -90 -117 -92q-154 4 -160 164q4 72 47 134.5t121 111.5q72 41 152 63.5t158 22.5q115 0 200 -74q90 -74 90 -178q0 -88 -22.5 -154.5t-63.5 -115.5q95 -86 95 -205q0 -289 -349 -289q-457 0 -735 915zM504 -4 l411 266v29l109 53v-741l-37 24q-41 59 -82 104.5t-76 67.5q-43 31 -103 47.5t-124 18.5q-25 35 -50.5 65.5t-47.5 65.5zM676 -39q125 -16 246 -145l6 2v309z" />
<glyph horiz-adv-x="1282" d="M10 1059q0 92 80 172q41 41 85 59.5t91 18.5q127 12 246 -131l119 159q197 -233 213 -413q2 -47 -11.5 -90t-33.5 -78q-94 -133 -246 -197q92 -59 195.5 -137t216.5 -178v1261l63 -78v-8q-6 -100 100 -100q10 0 19.5 1t19.5 3l127 -119h-219v-1261q-6 4 -18.5 11 t-22.5 13t-15 10.5t1 -0.5l2 -2q-63 119 -137 205t-152 135t-186.5 82t-241.5 45h2l-188 258q35 -8 72.5 -12t66.5 -6q68 -4 139.5 10.5t134.5 46.5q184 106 185 258q0 66 -86 121l-109 -157q-27 10 -48 18t-48 16q14 27 18 62q0 16 -9 36.5t-24.5 39t-37 31t-45.5 12.5 q-27 0 -51.5 -9.5t-42 -24t-24.5 -33.5t-1 -40q39 -16 64.5 -27.5t35.5 -21.5q35 -29 35 -105q0 -45 -38 -74.5t-87 -29.5q-84 0 -147 84q-61 74 -62 164z" />
<glyph horiz-adv-x="1345" d="M-129 1319h1366l121 -115h-1366zM57 1128l66 -24q72 -170 132 -292t99 -177q178 -250 428 -250q121 0 228 90q109 90 108 209q0 96 -53 170q-63 88 -150 88q-29 0 -84 -14q47 -59 48 -135q0 -166 -183 -166q-90 0 -143 65.5t-53 159.5q0 109 88 178q78 63 188 64 q94 0 174 -40t144 -112q59 -72 89.5 -159t30.5 -183q0 -84 -35.5 -157.5t-97.5 -133.5q-135 -117 -305 -116q-461 0 -719 935zM303 -156q0 127 80 197t203 70q135 0 252 -105q111 -98 147 -233h4v487l109 90v-889l-47 45v-2q-125 487 -447 488q-27 0 -51 -12q88 -76 88 -164 q0 -68 -37 -113t-102 -45q-84 0 -141.5 52t-57.5 134z" />
<glyph horiz-adv-x="1443" d="M-129 1319h1460l123 -115h-199q0 -135 1 -304t1 -344t1.5 -343t1.5 -303q-10 4 -40 30.5t-77 92.5q-23 33 -49.5 62.5t-53 53t-51 39t-45.5 17.5q-2 -68 -53 -105t-111 -37q-72 0 -119 37t-51 119q-2 59 43 101t113 42h39q12 25 -5.5 61t-41.5 64q-57 -20 -135 -18 q-334 4 -521 684l78 -41q35 -115 71 -196.5t68 -122.5q61 -80 140.5 -123t171.5 -39q102 8 157.5 56t59.5 140q0 45 -14.5 82t-41 60.5t-60.5 34t-70 6.5q53 -39 57 -103q-10 -133 -152 -133q-156 0 -155 176q0 35 14 69t42 59.5t66.5 42t88.5 16.5q178 -4 258 -119 q75 -113 63 -248q0 -61 -23.5 -117.5t-64.5 -99.5l-25 -21h3l-17 -12q29 -31 58.5 -74t39.5 -102q43 -33 84 -70q35 -31 73 -69.5t65 -75.5v1075h-1151z" />
<glyph horiz-adv-x="1232" d="M-133 1319h1284l117 -115h-1288zM63 594q0 98 27 176t76 137l43 -47q-66 -82 -66 -217t65.5 -202.5t188.5 -67.5q16 0 42 2t61 6t61.5 7t44.5 3q199 0 355 -133v690q0 72 -68 72q-47 0 -96 -14.5t-99 -63.5q-96 -86 -123 -190q16 4 34 6t34 2q25 0 43.5 -13.5t30.5 -33 t18 -42t6 -42.5q0 -131 -151 -131q-203 0 -203 231q0 147 164 295q82 74 158.5 100.5t154.5 26.5q70 0 142 -55q70 -55 69 -125v-1002q-18 2 -38.5 19.5t-37.5 46.5q-27 53 -44 88t-23 45q-29 35 -68 53.5t-92 18.5q-31 0 -74 -4.5t-100 -12.5q-55 -8 -99 -11t-75 -3 q-176 0 -268.5 96t-92.5 289z" />
<glyph horiz-adv-x="1683" d="M-133 1319h1284l117 -115h-1288zM63 594q0 98 27 176t76 137l43 -47q-66 -82 -66 -217t65.5 -202.5t188.5 -67.5q16 0 42 2t61 6t61.5 7t44.5 3q199 0 355 -133v690q0 72 -68 72q-47 0 -96 -14.5t-99 -63.5q-96 -86 -123 -190q16 4 34 6t34 2q25 0 43.5 -13.5t30.5 -33 t18 -42t6 -42.5q0 -131 -151 -131q-203 0 -203 231q0 147 164 295q82 74 158.5 100.5t154.5 26.5q70 0 142 -55q70 -55 69 -125v-1002q-18 2 -38.5 19.5t-37.5 46.5q-27 53 -44 88t-23 45q-29 35 -68 53.5t-92 18.5q-31 0 -74 -4.5t-100 -12.5q-55 -8 -99 -11t-75 -3 q-176 0 -268.5 96t-92.5 289zM1018 721v113q158 -240 303 -240q61 0 101 47t40 107q0 86 -79 137q6 -41 6 -66q0 -45 -44 -73.5t-93 -28.5q-33 0 -66 45q-25 37 -25 72q0 63 62 106q55 43 119 43q100 0 168 -84q67 -84 67 -186q0 -47 -15.5 -89t-43 -75t-64.5 -51.5 t-82 -18.5q-63 0 -152 61.5t-202 180.5zM1106 1319h502l117 -115h-502z" />
<glyph horiz-adv-x="1576" d="M-133 1319h1284l117 -115h-1288zM63 594q0 98 27 176t76 137l43 -47q-66 -82 -66 -217t65.5 -202.5t188.5 -67.5q16 0 42 2t61 6t61.5 7t44.5 3q199 0 355 -133v690q0 72 -68 72q-47 0 -96 -14.5t-99 -63.5q-96 -86 -123 -190q16 4 34 6t34 2q25 0 43.5 -13.5t30.5 -33 t18 -42t6 -42.5q0 -131 -151 -131q-203 0 -203 231q0 147 164 295q82 74 158.5 100.5t154.5 26.5q70 0 142 -55q70 -55 69 -125v-1002q-18 2 -38.5 19.5t-37.5 46.5q-27 53 -44 88t-23 45q-29 35 -68 53.5t-92 18.5q-31 0 -74 -4.5t-100 -12.5q-55 -8 -99 -11t-75 -3 q-176 0 -268.5 96t-92.5 289zM1069 709v176q72 29 136.5 51t114.5 20t82 -37.5t36 -121.5q-18 -193 -11 -386.5t42 -385.5l-133 90q-25 139 -25 547q4 129 -21 126q-10 2 -22 1t-36.5 -10t-63.5 -25.5t-99 -44.5zM1145 1319h352l117 -115h-350z" />
<glyph horiz-adv-x="1329" d="M-129 1319h1366l123 -115h-1374zM57 1128l66 -24q72 -170 132 -292t99 -177q178 -250 428 -250q121 0 228 90q109 90 108 209q0 96 -53 170q-63 88 -150 88q-29 0 -84 -14q47 -59 48 -135q0 -166 -183 -166q-90 0 -143 65.5t-53 159.5q0 109 88 178q78 63 188 64 q94 0 174 -40t144 -112q59 -72 89.5 -159t30.5 -183q0 -84 -35.5 -157.5t-97.5 -133.5q-135 -117 -305 -116q-461 0 -719 935zM319 -100q0 109 68 186q68 80 168 80q147 0 209 -168h4q0 135 102 135q86 0 140 -145h6q0 63 -3 147t-3 148l104 71q0 -186 -2 -366.5t-2 -366.5 l-45 41q-6 92 -19.5 154.5t-29.5 93.5q-49 78 -111 78q-82 0 -82 -97l15 -63l-99 27q-2 35 -13 68.5t-28 60.5q-39 63 -102 63q-29 0 -57.5 -10t-51 -28.5t-37 -45t-14.5 -59.5q0 -90 56 -125q0 55 29.5 93t74.5 38q96 0 96 -119q0 -125 -139 -125q-47 0 -90 16.5t-75 47 t-50.5 73.5t-18.5 97z" />
<glyph horiz-adv-x="1245" d="M-129 1319h1266l116 -115h-1269zM45 1145l78 -25q70 -160 124 -269.5t91 -164.5q160 -227 379 -231q113 0 207 69q98 76 100 207q0 90 -47 160q-53 59 -135 59q-31 0 -82 -12q57 -39 57 -109q-10 -160 -178 -159q-43 0 -79 17.5t-61.5 48t-39 70.5t-13.5 83q0 92 80 170 q84 59 183 59q94 4 175 -35t146 -116q49 -68 76.5 -148t23.5 -166q-12 -160 -137 -268q-125 -109 -284 -109q-207 0 -376 227.5t-288 641.5zM432 193q117 80 230.5 156.5t214.5 139.5q27 -16 61 -57q39 -45 39 -61v-615q-59 33 -117 113q-59 90 -100 125q-39 29 -96.5 42 t-126.5 15zM604 147q154 -31 270 -184v359q-45 -27 -114.5 -71t-155.5 -104z" />
<glyph horiz-adv-x="1134" d="M2 368q0 35 10.5 86t28.5 117l43 -43q-14 -23 -14 -78q0 -92 43 -140t131 -65q92 -16 160.5 -16t116.5 -8q117 -10 191.5 -44t127.5 -112v250l119 74v-541q-8 6 -33 37t-72 86q-59 70 -153 76h-203q-98 0 -180 12t-140 35q-82 39 -129 107.5t-47 166.5zM31 1010 q0 137 135 227q123 82 262 82q127 0 213 -96q90 -94 90 -222q0 -215 -285 -389q82 -47 138.5 -82.5t87.5 -60.5q59 -49 103 -96t69 -97h4v1256l57 -70l13 -73q4 -20 14 -38t29 -32h81l117 -115h-201v-1204q-104 141 -173.5 225t-102.5 115q-82 72 -192.5 108.5t-221.5 38.5 l-184 242q47 -8 88 -6t117 26.5t153 71.5q88 53 132 109.5t44 122.5q0 61 -44 104t-105 43q-45 0 -115 -37q-70 -39 -90 -76q63 -70 64 -116q0 -25 -12.5 -47.5t-33 -39t-47 -25.5t-53.5 -9q-68 0 -109.5 46t-41.5 114z" />
<glyph horiz-adv-x="1607" d="M2 368q0 35 10.5 86t28.5 117l43 -43q-14 -23 -14 -78q0 -92 43 -140t131 -65q92 -16 160.5 -16t116.5 -8q117 -10 191.5 -44t127.5 -112v250l119 74v-541q-8 6 -33 37t-72 86q-59 70 -153 76h-203q-98 0 -180 12t-140 35q-82 39 -129 107.5t-47 166.5zM31 1010 q0 137 135 227q123 82 262 82q127 0 213 -96q90 -94 90 -222q0 -215 -285 -389q82 -47 138.5 -82.5t87.5 -60.5q59 -49 103 -96t69 -97h4v1256l57 -70l13 -73q4 -20 14 -38t29 -32h81l117 -115h-201v-1204q-104 141 -173.5 225t-102.5 115q-82 72 -192.5 108.5t-221.5 38.5 l-184 242q47 -8 88 -6t117 26.5t153 71.5q88 53 132 109.5t44 122.5q0 61 -44 104t-105 43q-45 0 -115 -37q-70 -39 -90 -76q63 -70 64 -116q0 -25 -12.5 -47.5t-33 -39t-47 -25.5t-53.5 -9q-68 0 -109.5 46t-41.5 114zM936 721v113q158 -240 303 -240q61 0 101 47t40 107 q0 86 -79 137q6 -41 6 -66q0 -45 -44 -73.5t-93 -28.5q-33 0 -66 45q-25 37 -25 72q0 63 62 106q55 43 119 43q100 0 168 -84q67 -84 67 -186q0 -47 -15.5 -89t-43 -75t-64.5 -51.5t-82 -18.5q-63 0 -152 61.5t-202 180.5zM1024 1319h502l117 -115h-502z" />
<glyph horiz-adv-x="1386" d="M2 368q0 35 10.5 86t28.5 117l43 -43q-14 -23 -14 -78q0 -92 43 -140t131 -65q92 -16 160.5 -16t116.5 -8q117 -10 191.5 -44t127.5 -112v250l119 74v-541q-8 6 -33 37t-72 86q-59 70 -153 76h-203q-98 0 -180 12t-140 35q-82 39 -129 107.5t-47 166.5zM31 1010 q0 137 135 227q123 82 262 82q127 0 213 -96q90 -94 90 -222q0 -215 -285 -389q82 -47 138.5 -82.5t87.5 -60.5q59 -49 103 -96t69 -97h4v1256l57 -70l13 -73q4 -20 14 -38t29 -32h81l117 -115h-201v-1204q-104 141 -173.5 225t-102.5 115q-82 72 -192.5 108.5t-221.5 38.5 l-184 242q47 -8 88 -6t117 26.5t153 71.5q88 53 132 109.5t44 122.5q0 61 -44 104t-105 43q-45 0 -115 -37q-70 -39 -90 -76q63 -70 64 -116q0 -25 -12.5 -47.5t-33 -39t-47 -25.5t-53.5 -9q-68 0 -109.5 46t-41.5 114zM925 709v176q72 29 136.5 51t114.5 20t82 -37.5 t36 -121.5q-18 -193 -11 -386.5t42 -385.5l-133 90q-25 139 -25 547q4 129 -21 126q-10 2 -22 1t-36.5 -10t-63.5 -25.5t-99 -44.5zM1001 1319h352l117 -115h-350z" />
<glyph horiz-adv-x="1134" d="M31 1010q0 137 135 227q123 82 262 82q127 0 213 -96q90 -94 90 -222q0 -215 -285 -389q82 -47 138.5 -82.5t87.5 -60.5q59 -49 103 -96t69 -97h4v1256l57 -70l13 -73q4 -20 14 -38t29 -32h81l117 -115h-201v-1204q-104 141 -173.5 225t-102.5 115q-82 72 -192.5 108.5 t-221.5 38.5l-184 242q47 -8 88 -6t117 26.5t153 71.5q88 53 132 109.5t44 122.5q0 61 -44 104t-105 43q-45 0 -115 -37q-70 -39 -90 -76q63 -70 64 -116q0 -25 -12.5 -47.5t-33 -39t-47 -25.5t-53.5 -9q-68 0 -109.5 46t-41.5 114zM414 53q115 80 229.5 157t214.5 140 q10 -8 26.5 -22.5t33.5 -34.5q41 -41 40 -64v-612q-63 33 -114 113q-68 96 -105 125q-37 27 -95 41t-126 16zM586 8q150 -31 270 -184v360q-47 -29 -115.5 -72.5t-154.5 -103.5z" />
<glyph horiz-adv-x="1900" d="M-115 1319h822l116 -115h-575v-508q147 137 279 227.5t249 133.5l72 -53q6 135 131 221q59 41 125.5 60.5t140.5 19.5q182 0 285 -119q70 -82 147 -305h4l-20 331q-12 199 -12 326l67 -65l-8 -33q0 -125 104 -125q4 0 16.5 1t18.5 3l115 -115h-209v-1229q-33 41 -65.5 80 t-63.5 78l8 615q0 68 -26.5 138t-73.5 136q-111 145 -244 145q-197 0 -272 -182q86 37 149 37q49 0 91 -13.5t73 -35.5q68 -57 68 -154q0 -66 -61.5 -165t-172.5 -220l-133 152q27 18 62.5 54t76.5 83q51 53 79 92t28 57q0 55 -68 56q-23 0 -112 -51q-41 -23 -72 -36.5 t-47 -13.5q-20 0 -31 2q-123 -264 -123 -487q0 -129 45 -352q-14 8 -38.5 19t-41.5 20q-35 162 -52 286.5t-17 204.5q0 150 39 303q-119 -45 -258.5 -176t-220.5 -280l-156 159v678h-121z" />
<glyph horiz-adv-x="1681" d="M-115 1319h1131l114 -115h-882v-534q61 68 132 126t144.5 106t143 84t127.5 58l188 -143q-78 -152 -119 -291t-41 -268t45 -352l-80 39q-35 162 -52 286.5t-17 204.5q0 150 39 303q-154 -61 -280 -181t-199 -277l-156 161v678h-121zM454 1319h1129l112 -115h-186v-1202 l-55 51v-2q-90 225 -231.5 330.5t-330.5 95.5l-151 160q76 82 240 233q-41 -16 -91 -16q-90 0 -163 61q-37 33 -55.5 73t-18.5 83q0 63 39 133h-125zM843 1053q0 -53 39 -88t92 -35q117 0 185 92l121 -121q-68 -41 -143 -110.5t-146 -159.5q270 -106 401 -320v893h-420 q-25 0 -48 -14t-41.5 -35.5t-29 -48.5t-10.5 -53z" />
<glyph horiz-adv-x="1261" d="M-133 1319h1331l117 -115h-1104v-456q74 111 170 198.5t211 147.5l166 -133q-168 -184 -178 -392q25 45 70.5 98.5t111.5 110.5q63 49 123.5 88t107.5 62l172 -121q-82 -117 -130 -245t-48 -255q0 -72 13.5 -148.5t41.5 -162.5l-81 57q-74 182 -74 385q0 63 14 135 t45 152q-70 -49 -121 -95t-84 -89q-29 -41 -60.5 -97.5t-68.5 -138.5l-139 141q-18 242 82 445q-53 -41 -102.5 -87t-92.5 -106q-41 -59 -71 -114q-31 -51 -58 -115l-133 133v602h-118z" />
<glyph horiz-adv-x="1335" d="M-145 1319h1411l120 -115h-1130v-469q150 229 389 355q41 -33 85 -68t85 -70q-82 -92 -130 -195.5t-52 -205.5h4q20 45 68.5 99.5t113.5 113.5q63 53 124 91t116 60q41 -31 87 -60.5t89 -59.5q-86 -119 -135 -250t-49 -262q0 -72 13 -144.5t40 -150.5q41 -84 35 -193h6 q-115 246 -342 246q-14 0 -30.5 -1t-33.5 -3q-18 0 -63 -5t-117 -16q-139 -18 -178 -18q-143 0 -246 90q-98 88 -98 229q0 53 2 95.5t8 76.5l9 -9t16.5 -16t18.5 -18.5t13 -13.5q-10 -20 -10 -47q25 -211 248 -213h70q422 0 501 -37q20 -6 40 -16t42 -27q-25 82 -36 162 t-11 162q0 68 14.5 141.5t47.5 157.5q-139 -100 -207 -195q-61 -76 -133 -241l-146 145v-2q-2 20 -3 39.5t-1 42.5q0 186 88 375q-57 -39 -106 -86.5t-96 -106.5q-84 -119 -127 -237l-140 139v616h-166z" />
<glyph horiz-adv-x="1286" d="M-113 1319h1311l117 -115h-1104v-456q74 111 170 198.5t211 147.5l166 -133q-168 -184 -178 -392h6q18 45 64 98.5t112 110.5q63 49 123.5 88t107.5 62l172 -121q-117 -139 -116 -524q0 -33 1 -75t3 -77v-115v-325q-29 14 -58.5 42.5t-56.5 69.5q-66 94 -104 123 q-37 29 -95.5 43.5t-126.5 16.5l-104 141q115 78 221.5 149.5t204.5 137.5q-2 33 -3 62.5t-1 55.5q0 53 3 100.5t13 92.5q-70 -49 -121 -95t-84 -89q-29 -41 -60.5 -97.5t-68.5 -138.5l-139 141v-2q-2 18 -2 37v37q0 180 84 373q-53 -41 -102.5 -87t-92.5 -106 q-41 -59 -72.5 -113.5t-54.5 -111.5l-135 129v602h-98zM684 84l2 -4q145 -35 264 -182v348q0 8 -4 12q-45 -29 -110.5 -72t-151.5 -102z" />
<glyph horiz-adv-x="1304" d="M-115 1319h1321l113 -115h-1092v-366q63 57 107.5 96t66.5 57q121 94 240 92q88 0 143 -90q53 -80 54 -178q127 78 180 78q150 0 143 -328v-47t-2 -53q0 -8 -1 -15.5t-1 -15.5l-4 -96q0 -92 8 -176t27 -166q-164 72 -164 430v49.5t2 59.5q0 8 1 17t1 15l6 119 q0 59 -184 -63v-674q-51 20 -109 119v-5q-31 53 -59.5 92.5t-48.5 59.5q-47 37 -111.5 60.5t-146.5 27.5l-115 152q98 72 213 147.5t250 159.5v94q0 12 -6 27.5t-18.5 28t-29 19.5t-36.5 3q-193 -51 -426 -381l-90 131v520h-113zM465 403q166 -59 270 -210v378 q-45 -29 -114.5 -70.5t-155.5 -97.5z" />
<glyph horiz-adv-x="1304" d="M-115 1319h1321l113 -115h-1092v-366q63 57 107.5 96t66.5 57q121 94 240 92q88 0 143 -90q53 -80 54 -178q127 78 180 78q150 0 143 -328v-47t-2 -53q0 -8 -1 -15.5t-1 -15.5l-4 -96q0 -92 8 -176t27 -166q-164 72 -164 430v49.5t2 59.5q0 8 1 17t1 15l6 119 q0 59 -184 -63v-949q-57 33 -111 109q-63 90 -96 119q-35 25 -90 39t-121 16l-98 133l237 164q-41 23 -91 34t-105 15l-115 152q98 72 213 147.5t250 159.5v94q0 12 -6 27.5t-18.5 28t-29 19.5t-36.5 3q-193 -51 -426 -381l-90 131v520h-113zM465 403q166 -59 270 -210v378 q-45 -29 -114.5 -70.5t-155.5 -97.5zM494 47q147 -27 258 -176v176l-11 21q-16 29 -33.5 53t-33.5 47z" />
<glyph horiz-adv-x="1107" d="M-115 1319h1131l114 -115h-882v-452q143 135 276 220t252 120q51 -45 102.5 -94.5t102.5 -94.5q-90 -139 -90 -649q0 -94 3 -202.5t9 -227.5h-43q-14 78 -48 147.5t-83 120.5q-104 109 -235 109q-16 0 -52 -29q23 -8 36.5 -34.5t13.5 -61.5q0 -68 -45.5 -117t-108.5 -49 q-37 0 -69.5 15.5t-56.5 41t-38 60t-14 73.5q0 45 19.5 84t51 68t74.5 46t92 17q199 -4 381 -184q-10 111 -16 208t-12 173q-2 16 -2 35.5v42.5q0 66 7 142.5t19 166.5q-166 -84 -289 -199.5t-206 -275.5l-156 162v618h-121z" />
<glyph horiz-adv-x="1155" d="M-119 1319h1178l110 -115h-684v-330q203 182 334 238q35 -23 91.5 -61.5t127.5 -96.5q-127 -104 -127 -254q41 -61 61.5 -97t26.5 -48q23 -41 32 -81t9 -81q0 -143 -92 -250q-98 -113 -282 -116q-137 2 -265.5 106.5t-236.5 292.5q-160 315 -158 692l80 -43 q12 -141 48 -278.5t95 -255.5q176 -338 406 -338q104 0 196 55q109 66 109 164q0 16 -5 36.5t-20 43.5q-197 -172 -313 -172q-68 0 -131 49q-66 49 -65 115q0 55 33.5 99t84.5 44q113 0 113 -109q0 -12 -3 -29.5t-13 -33.5q68 14 190 98q-4 53 -6 101.5t-2 91.5 q0 113 16 168q-246 -84 -321 -262l-117 145v397h-385z" />
<glyph horiz-adv-x="985" d="M-135 1319h1024l110 -115h-686v-330q203 182 334 238q35 -23 91.5 -62.5t127.5 -95.5q-129 -113 -129 -252q2 -4 4 -10t4.5 -14t6.5 -19q86 -45 86 -71v-766q-39 47 -64.5 75.5t-40.5 45.5q-74 68 -145 67q-23 0 -54.5 -2t-72.5 -6t-75 -5t-52 -1q-303 0 -303 352 q0 86 29.5 128t82.5 46q-16 -49 -26.5 -91t-10.5 -58q0 -135 123 -193q72 -33 258 -57q86 -12 146.5 -27.5t93.5 -36.5v439q-180 -180 -315 -181q-178 0 -179 205q0 49 34 85t81 36q115 0 115 -92q0 -51 -27 -86q68 2 215 119q-2 2 -4 9t-4 11l-10 41q-14 37 -15 64 q0 53 7.5 106t19.5 107q-49 -16 -96 -42t-88 -55q-104 -70 -133 -143l-119 125v397h-227z" />
<glyph horiz-adv-x="1212" d="M-117 1319h1239l115 -115h-207v-1208q-12 6 -27.5 16.5t-27.5 18.5q-33 74 -53.5 119t-30.5 61q-68 106 -148 106q0 -2 -2 -2t-6 -1t-8 -1q-10 -147 -154 -147q-74 0 -128 48t-54 118q0 178 221 178q-10 57 -14 118.5t-2 133.5q-2 31 2 69.5t16 88.5 q-84 -74 -166.5 -172.5t-191.5 -239.5l-133 121v575h-127zM233 778q35 45 98.5 109.5t114.5 107.5q53 47 107.5 80t108.5 49l159 -114q-59 -84 -92 -214t-33 -307q66 -23 219 -174v889h-682v-426z" />
<glyph horiz-adv-x="1167" d="M-131 1319h1202l117 -115h-832v-430q197 190 475 283l209 -156q-57 -113 -86.5 -229.5t-29.5 -239.5q0 -23 1 -49.5t5 -48.5q6 -80 20.5 -172t34.5 -189l-35 9h2q-4 4 -30.5 33.5t-75.5 88.5q-66 78 -156 78q-18 0 -49 -2t-78 -6q-45 -4 -75.5 -6t-49.5 -2 q-442 -16 -442 328q0 131 47 249l63 -38q-27 -61 -26 -119q0 -141 55 -197q45 -43 148 -43q12 0 42.5 2t71.5 6q4 0 7.5 1t7.5 1q51 4 85.5 8.5t53.5 4.5q115 0 182 -50q59 -39 144 -159l4 2q-33 74 -57.5 159t-41.5 171q0 39 2 87t6.5 94t9.5 86t13 64q-135 -31 -256 -139 q-53 -53 -99 -110.5t-83 -114.5l-142 145v600h-247z" />
<glyph horiz-adv-x="1636" d="M-131 1319h1202l117 -115h-832v-430q197 190 475 283l209 -156q-57 -113 -86.5 -229.5t-29.5 -239.5q0 -23 1 -49.5t5 -48.5q6 -80 20.5 -172t34.5 -189l-35 9h2q-4 4 -30.5 33.5t-75.5 88.5q-66 78 -156 78q-18 0 -49 -2t-78 -6q-45 -4 -75.5 -6t-49.5 -2 q-442 -16 -442 328q0 131 47 249l63 -38q-27 -61 -26 -119q0 -141 55 -197q45 -43 148 -43q12 0 42.5 2t71.5 6q4 0 7.5 1t7.5 1q51 4 85.5 8.5t53.5 4.5q115 0 182 -50q59 -39 144 -159l4 2q-33 74 -57.5 159t-41.5 171q0 39 2 87t6.5 94t9.5 86t13 64q-135 -31 -256 -139 q-53 -53 -99 -110.5t-83 -114.5l-142 145v600h-247zM938 662v114q156 -242 301 -241q61 0 100 48t39 107q0 84 -80 135q6 -37 7 -63q0 -47 -43 -76t-95 -29q-33 0 -61 45q-27 39 -27 74q0 63 60 105q55 43 118 43q102 0 170 -82q68 -87 68 -189q0 -47 -15.5 -89t-43 -73.5 t-65.5 -50t-83 -18.5q-63 0 -151 61.5t-199 178.5zM1024 1319h502l116 -115h-503z" />
<glyph horiz-adv-x="1415" d="M-131 1319h1202l117 -115h-832v-430q197 190 475 283l209 -156q-57 -113 -86.5 -229.5t-29.5 -239.5q0 -23 1 -49.5t5 -48.5q6 -80 20.5 -172t34.5 -189l-35 9h2q-4 4 -30.5 33.5t-75.5 88.5q-66 78 -156 78q-18 0 -49 -2t-78 -6q-45 -4 -75.5 -6t-49.5 -2 q-442 -16 -442 328q0 131 47 249l63 -38q-27 -61 -26 -119q0 -141 55 -197q45 -43 148 -43q12 0 42.5 2t71.5 6q4 0 7.5 1t7.5 1q51 4 85.5 8.5t53.5 4.5q115 0 182 -50q59 -39 144 -159l4 2q-33 74 -57.5 159t-41.5 171q0 39 2 87t6.5 94t9.5 86t13 64q-135 -31 -256 -139 q-53 -53 -99 -110.5t-83 -114.5l-142 145v600h-247zM915 823q98 35 152.5 53.5t65.5 18.5q147 6 149 -160q-2 -39 -5 -84t-5 -86q-8 -51 -11.5 -96t-3.5 -76q0 -92 6.5 -196.5t20.5 -225.5l4 2l-119 97v-2q-8 61 -11 194t-3 338q0 86 -20 127q-35 0 -109 -35l-45 -18 l-61 -25q0 37 -2.5 87t-2.5 87zM991 1319h309l117 -115h-309z" />
<glyph horiz-adv-x="993" d="M-115 1319h1014l111 -115h-783v-366q63 57 107.5 96t66.5 57q121 94 240 92q88 0 160 -90q23 -41 37 -86t12 -88v-870q-51 20 -109 119v-5q-31 53 -59.5 92.5t-48.5 59.5q-47 37 -111.5 60.5t-146.5 27.5l-115 152q98 72 213 147.5t250 159.5v94q0 12 -6 27.5t-18.5 28 t-29 19.5t-36.5 3q-193 -51 -426 -381l-90 131v520h-113zM465 403q166 -59 270 -210v378q-45 -29 -114.5 -70.5t-155.5 -97.5z" />
<glyph horiz-adv-x="1034" d="M96 713l303 225q-109 0 -178 51q-35 29 -55.5 68t-20.5 88q0 82 56.5 135t138.5 53q139 0 143 -94q2 -47 -24.5 -73.5t-69.5 -26.5q-20 0 -41.5 8t-46.5 29q-20 -27 -20 -66q0 -55 49 -90t127 -35q23 0 317 176v158h213l115 -115h-213v-1233l-66 92v-2q-23 39 -45 80 t-51 82q-92 135 -184 203q-59 41 -137 65.5t-173 34.5zM141 61q0 86 72 152q70 63 168 63q123 0 232.5 -71.5t177.5 -194.5h4v246l94 631v-1102h-43q-16 78 -50 147.5t-83 120.5q-102 109 -236 109q-16 0 -51 -29q49 -23 49 -98q0 -33 -12 -62.5t-33.5 -53t-49.5 -37 t-58 -13.5q-76 0 -128.5 56.5t-52.5 135.5zM344 678q281 -135 430 -381v653q-104 -39 -211.5 -106.5t-218.5 -165.5z" />
<glyph horiz-adv-x="1390" d="M96 713l37 24q63 47 132 97.5t134 103.5q-109 0 -178 51q-35 29 -55.5 68t-20.5 88q0 82 57.5 135t139.5 53q53 0 97 -25.5t44 -68.5q0 -90 -88 -90q-41 0 -92 31q-4 -16 -7 -28.5t-7 -23.5l-6 -18q0 -55 48 -90t107 -35q20 0 60.5 17.5t103.5 56.5l172 102v158h522 l117 -115h-207v-1339q-29 16 -50 46t-32 62q-10 39 -24.5 73t-18.5 42q-41 47 -176 78q0 -53 -38 -94t-89 -41q-152 0 -151 145q0 115 139 135q-88 137 -246 176q-35 10 -106.5 19.5t-182.5 19.5h2q-33 47 -67.5 93.5t-69.5 93.5zM342 676q309 -45 432 -252v526 q-205 -78 -432 -274zM889 309q47 -20 99 -57t106 -86v1038h-205v-895z" />
<glyph horiz-adv-x="1073" d="M-2 377q0 66 41 201l43 -43q-14 -20 -14 -76q0 -186 174 -219q55 -6 106 -11.5t98 -11.5q233 -20 334 -174l4 2v248l105 102v-538q-10 6 -36 37.5t-71 82.5q-29 33 -66.5 52.5t-84.5 23.5h-205q-66 0 -130.5 12.5t-121.5 34.5q-80 41 -128 110t-48 167zM96 713l303 225 q-109 0 -178 51q-35 29 -55.5 68t-20.5 88q0 82 56.5 135t138.5 53q143 0 143 -94q0 -90 -86 -90q-43 0 -94 31q-20 -27 -20 -70q0 -55 48 -90t126 -35q23 0 317 176v158h197l112 -115h-194v-1233l-66 92v-2q-23 39 -45 80t-51 82q-92 135 -184 203q-59 41 -137 65.5 t-175 34.5h2q-33 47 -67.5 93.5t-69.5 93.5zM344 678q281 -135 430 -381v653q-104 -39 -211.5 -106.5t-218.5 -165.5z" />
<glyph horiz-adv-x="1556" d="M-2 377q0 66 41 201l43 -43q-14 -20 -14 -76q0 -186 174 -219q55 -6 106 -11.5t98 -11.5q233 -20 334 -174l4 2v248l105 102v-538q-10 6 -36 37.5t-71 82.5q-29 33 -66.5 52.5t-84.5 23.5h-205q-66 0 -130.5 12.5t-121.5 34.5q-80 41 -128 110t-48 167zM96 713l303 225 q-109 0 -178 51q-35 29 -55.5 68t-20.5 88q0 82 56.5 135t138.5 53q143 0 143 -94q0 -90 -86 -90q-43 0 -94 31q-20 -27 -20 -70q0 -55 48 -90t126 -35q23 0 317 176v158h197l112 -115h-194v-1233l-66 92v-2q-23 39 -45 80t-51 82q-92 135 -184 203q-59 41 -137 65.5 t-175 34.5h2q-33 47 -67.5 93.5t-69.5 93.5zM344 678q281 -135 430 -381v653q-104 -39 -211.5 -106.5t-218.5 -165.5zM854 721v113q158 -240 303 -240q61 0 101 47t40 107q0 86 -79 137q6 -41 6 -66q0 -45 -44 -73.5t-93 -28.5q-33 0 -66 45q-25 37 -25 72q0 63 62 106 q55 43 119 43q100 0 168 -84q67 -84 67 -186q0 -47 -15.5 -89t-43 -75t-64.5 -51.5t-82 -18.5q-63 0 -152 61.5t-202 180.5zM942 1319h502l117 -115h-502z" />
<glyph horiz-adv-x="1366" d="M-2 377q0 66 41 201l43 -43q-14 -20 -14 -76q0 -186 174 -219q55 -6 106 -11.5t98 -11.5q233 -20 334 -174l4 2v248l105 102v-538q-10 6 -36 37.5t-71 82.5q-29 33 -66.5 52.5t-84.5 23.5h-205q-66 0 -130.5 12.5t-121.5 34.5q-80 41 -128 110t-48 167zM96 713l303 225 q-109 0 -178 51q-35 29 -55.5 68t-20.5 88q0 82 56.5 135t138.5 53q143 0 143 -94q0 -90 -86 -90q-43 0 -94 31q-20 -27 -20 -70q0 -55 48 -90t126 -35q23 0 317 176v158h197l112 -115h-194v-1233l-66 92v-2q-23 39 -45 80t-51 82q-92 135 -184 203q-59 41 -137 65.5 t-175 34.5h2q-33 47 -67.5 93.5t-69.5 93.5zM344 678q281 -135 430 -381v653q-104 -39 -211.5 -106.5t-218.5 -165.5zM864 709v176q72 29 136.5 51t114.5 20t82 -37.5t36 -121.5q-18 -193 -11 -386.5t42 -385.5l-133 90q-25 139 -25 547q4 129 -21 126q-10 2 -22 1 t-36.5 -10t-63.5 -25.5t-99 -44.5zM940 1319h352l117 -115h-350z" />
<glyph horiz-adv-x="1802" d="M96 713l303 225q-109 0 -178 51q-35 29 -55.5 68t-20.5 88q0 82 56.5 135t138.5 53q139 0 143 -94q2 -47 -24.5 -73.5t-69.5 -26.5q-20 0 -41.5 8t-46.5 29q-20 -27 -20 -66q0 -55 49 -90t127 -35q23 0 317 176v158h213l115 -115h-213v-1233l-66 92v-2q-23 39 -45 80 t-51 82q-92 135 -184 203q-59 41 -137 65.5t-173 34.5zM344 678q281 -135 430 -381v653q-104 -39 -211.5 -106.5t-218.5 -165.5zM780 760q344 240 705 360v84h-518l-113 115h866l111 -115h-236v-1204l-63 76q-6 18 -15.5 37.5t-35 68.5t-72.5 107.5t-88 97.5 q-147 135 -391 160zM1022 694q309 -129 463 -393v633q-111 -41 -224.5 -98.5t-238.5 -141.5z" />
<glyph horiz-adv-x="1452" d="M-115 1319h1202q0 16 1.5 35.5t1.5 36.5q2 102 -144 102q-16 0 -48 -2t-75 -8q-4 0 -8 -1t-8 -1q-53 -4 -89 -6t-54 -2q-133 0 -238 63q-123 68 -123 193q0 131 82 137l6 -39q-10 -10 -20.5 -27.5t-10.5 -34.5q0 -70 64 -104q51 -31 125 -31q23 0 66.5 3t109.5 7 q131 12 178 13q162 0 232 -90q63 -80 63 -244h156l114 -115h-759v-801q16 -76 112 -77q102 0 211 125q51 59 78 118.5t33 116.5l-37 -4q-59 0 -105.5 39t-46.5 98q0 63 42 108.5t108 45.5q98 0 158 -96q53 -82 53 -189q0 -168 -144 -336q-145 -176 -313 -176 q-254 12 -260 258v133l-20 123q-33 184 -170 184q-31 0 -50 -10q43 -29 43 -84q0 -51 -44 -88t-99 -37q-156 0 -156 140q0 49 17.5 91t48.5 73.5t72 50t90 18.5q86 0 164 -65q41 -31 64.5 -68t35.5 -78h4v387h-600z" />
<glyph horiz-adv-x="1335" d="M-115 1319h1202q0 16 1.5 35.5t1.5 36.5q2 102 -144 102q-16 0 -48 -2t-75 -8q-4 0 -8 -1t-8 -1q-53 -4 -89 -6t-54 -2q-133 0 -238 63q-123 68 -123 193q0 131 82 137l6 -39q-10 -10 -20.5 -27.5t-10.5 -34.5q0 -70 64 -104q51 -31 125 -31q23 0 66.5 3t109.5 7 q131 12 178 13q162 0 232 -90q63 -80 63 -244h156l114 -115h-759v-801q16 -76 112 -77q102 0 211 125q51 59 78 118.5t33 116.5l-37 -4q-59 0 -105.5 39t-46.5 98q0 63 42 108.5t108 45.5q98 0 158 -96q53 -82 53 -189q0 -160 -123 -309v-647q-10 8 -34.5 39.5t-70.5 85.5 q-57 68 -151 73h-205q-98 0 -180 12.5t-139 34.5q-82 41 -130.5 110t-48.5 167q0 35 11.5 85t29.5 116l43 -43q-14 -25 -14 -76q0 -186 174 -219q92 -4 160 -10.5t115 -12.5q117 -10 199.5 -53t133.5 -121l5 2v346q-59 -45 -115.5 -68.5t-116.5 -23.5q-254 12 -260 258v133 l-20 123q-33 184 -170 184q-31 0 -50 -10q43 -29 43 -84q0 -51 -44 -88t-99 -37q-156 0 -156 140q0 49 17.5 91t48.5 73.5t72 50t90 18.5q86 0 164 -65q41 -31 64.5 -68t35.5 -78h4v387h-600z" />
<glyph horiz-adv-x="1091" d="M-121 1319h696q-199 256 -198 457q0 141 135 243l121 -125q-139 -55 -139 -172q0 -131 188 -403h307l115 -115h-344q229 -309 229 -610q0 -205 -117 -346q-123 -154 -321 -154q-145 0 -254 90q-113 94 -113 240q0 41 21.5 82t58.5 78l21 14q33 25 66.5 48.5t68.5 47.5 q80 74 80 162q0 45 -27 85t-74 40q-2 -2 -6 -2q-4 -2 -8 -2t-8 -2q8 -18 15 -41t16 -41q-4 -59 -45 -100t-101 -41q-66 0 -106.5 53t-40.5 123q0 90 64.5 145t158.5 55q49 0 90 -18t70.5 -49t45 -73t15.5 -91q0 -31 -6 -60.5t-23 -58.5l5 -2q25 16 46 44t35.5 59.5 t22.5 67.5t8 69q0 111 -39 188h-612zM319 369q0 -76 54.5 -126t132.5 -50q76 0 144.5 39.5t123.5 111.5q51 66 79 140.5t28 154.5q0 203 -133 379q0 -92 -17.5 -168t-54.5 -133q-49 -74 -168 -170q-135 -106 -189 -178z" />
<glyph horiz-adv-x="1300" d="M-121 1319h1325l115 -115h-600v-442q0 -23 10 -39q20 -31 67.5 2t110.5 113q4 8 33 47t76 108q39 -29 67.5 -70.5t51.5 -101.5q47 -109 47 -213t-32 -191t-90.5 -149.5t-143.5 -97.5t-189 -35q-158 0 -281.5 82t-216.5 238q-47 102 -106.5 241.5t-114.5 288.5l70 -18 q53 -123 112.5 -233.5t120.5 -196.5q84 -115 187.5 -172.5t232.5 -57.5q139 0 254 84q121 96 121 227q0 90 -53 175q-10 -35 -45 -73t-84 -77q-51 -37 -95.5 -57.5t-76.5 -20.5q-88 0 -144 150q-35 100 -81 164.5t-103 81.5l-4 -11q25 -41 22 -80q0 -39 -26.5 -62.5 t-75.5 -25.5q-141 4 -135 166q6 68 59 109q45 35 119 33q82 -4 154 -93q55 -66 63 -125h4v332h-616z" />
<glyph horiz-adv-x="1304" d="M-121 1319h1325l115 -115h-600v-442q0 -23 10 -39q20 -31 67.5 2t110.5 113q4 8 33 47t76 108q39 -29 67.5 -70.5t51.5 -101.5q47 -109 47 -213t-32 -191t-90.5 -149.5t-143.5 -97.5t-189 -35q-158 0 -281.5 82t-216.5 238q-47 102 -106.5 241.5t-114.5 288.5l70 -18 q53 -123 112.5 -233.5t120.5 -196.5q84 -115 187.5 -172.5t232.5 -57.5q139 0 254 84q121 96 121 227q0 90 -53 175q-10 -35 -45 -73t-84 -77q-51 -37 -95.5 -57.5t-76.5 -20.5q-88 0 -144 150q-35 100 -81 164.5t-103 81.5l-4 -11q25 -41 22 -80q0 -39 -26.5 -62.5 t-75.5 -25.5q-141 4 -135 166q6 68 59 109q45 35 119 33q82 -4 154 -93q55 -66 63 -125h4v332h-616zM82 174q0 68 41 203l43 -43q-8 -12 -12 -29.5t-4 -46.5q0 -186 178 -219q92 -4 159.5 -10t112.5 -13q231 -20 336 -176l4 2v394l100 104v-686q4 -4 -3 5t-21.5 25.5 t-34.5 41t-43 51.5q-57 66 -156 78h-204q-205 0 -318 47q-178 74 -178 272z" />
<glyph horiz-adv-x="1333" d="M-121 1319h1350l112 -115h-622v-442q0 -23 10 -39q20 -31 67.5 2t110.5 113q4 8 33 47t76 108q39 -29 67.5 -70.5t51.5 -101.5q47 -109 47 -213q0 -186 -92 -305v-643l-5 -12q47 -41 95.5 -89t91.5 -98q35 -41 51 -67.5t27 -44.5v-88q-33 43 -73 88t-85 82 q-41 35 -85 63.5t-79 48.5q-80 -109 -209 -125q-82 0 -147 39q-74 45 -74 125q0 41 16.5 76t45 59.5t66.5 38t81 13.5q63 0 170 -66q18 8 18 70l-10 16q-61 68 -154 74h-200q-98 0 -180 12t-142 35q-80 39 -128 107.5t-48 166.5q0 35 9.5 86.5t29.5 116.5l43 -45 q-12 -18 -12 -76q0 -182 174 -219q92 -4 159.5 -9t112.5 -11q233 -25 340 -183v359q-111 -68 -262 -68q-158 0 -281.5 82t-216.5 238q-47 102 -106.5 241.5t-114.5 288.5l70 -18q53 -123 112.5 -233.5t120.5 -196.5q84 -115 187.5 -172.5t232.5 -57.5q139 0 254 84 q121 96 121 227q0 90 -53 175q-10 -35 -45 -73t-84 -77q-51 -37 -95.5 -57.5t-76.5 -20.5q-88 0 -144 150q-35 100 -81 164.5t-103 81.5l-4 -11q25 -41 22 -80q0 -39 -26.5 -62.5t-75.5 -25.5q-141 4 -135 166q6 68 59 109q45 35 119 33q82 -4 154 -93q55 -66 63 -125h4v332 h-616zM698 -410q2 -55 72 -63q47 -6 100 16q25 16 42.5 32.5t21.5 33.5q-18 23 -45 34t-68 13q-121 2 -123 -66z" />
<glyph horiz-adv-x="1308" d="M-127 1319h1333l117 -115h-309q76 -115 76 -221q0 -78 -117 -190q203 -78 203 -320q0 -92 -31 -166t-87.5 -125t-133 -78.5t-168.5 -27.5q-309 0 -520 381q-170 313 -199 661l49 -28q37 -150 97.5 -294.5t121.5 -244.5q193 -293 465 -293q59 0 112.5 17.5t98.5 46.5 q47 37 74.5 84t27.5 106q0 176 -196 176q25 -29 39 -63.5t14 -69.5q0 -31 -14.5 -59.5t-38 -50t-54 -34t-63.5 -12.5q-86 0 -134 52.5t-48 138.5q0 162 198 219l-2 12q-23 10 -122 94q-72 59 -140 70l-8 -12q45 -45 45 -84q0 -31 -11 -58.5t-29.5 -50t-43 -36t-51.5 -13.5 q-156 0 -156 174q0 88 58.5 136.5t148.5 48.5q84 0 207 -62h-2q86 -53 158 -135q123 51 123 176q0 49 -30 92t-77 43h-860z" />
<glyph horiz-adv-x="1224" d="M-127 1319h1253l115 -115h-301q76 -84 76 -221q-6 -47 -35 -93t-86 -95q248 -53 248 -224q0 -51 -8.5 -80.5t-22.5 -54.5q-37 -59 -78 -67q127 -61 127 -193q0 -135 -88 -203.5t-242 -68.5q-588 0 -802 833q18 -10 41.5 -23.5t44.5 -23.5q43 -133 104.5 -245.5 t138.5 -192.5q113 -111 228.5 -146.5t230.5 -35.5q233 0 234 143q0 53 -62 88q-23 -37 -51.5 -50t-65.5 -13q-129 16 -141 151q2 63 40 101t99 34q45 0 93 -47q41 27 45 72t-14.5 72.5t-75 52t-138.5 14.5q-68 -4 -115 -26.5t-75 -69.5q66 -41 65 -152q-16 -131 -137 -131 q-162 16 -164 191q0 135 119 217q100 74 242 88q-14 37 -41 69.5t-61.5 57t-77.5 39t-91 14.5l-4 -14q43 -43 43 -82q6 -27 1 -54.5t-21.5 -51t-45 -38t-69.5 -14.5q-150 12 -155 174q0 88 59 136.5t147 48.5q127 0 195 -43q119 -63 199 -154q92 51 92 176q0 49 -29 92 t-78 43h-784z" />
<glyph horiz-adv-x="1198" d="M-133 1319h1255l115 -115h-266q72 -147 71 -221q0 -74 -120 -195q51 -57 51 -139v-733q-27 35 -54.5 67.5t-56.5 65.5q-31 33 -71.5 52.5t-88.5 19.5q-51 0 -139 -21q-47 -8 -80.5 -12t-58.5 -4q-72 0 -130 26.5t-99 73.5q-37 47 -57.5 108.5t-20.5 133.5q0 125 57 225 l53 -41q-25 -74 -24 -135q0 -127 67 -178q51 -39 162 -39h42t54 2l99 4q127 0 237 -110v446q0 94 -67 131q-190 -29 -207 -147q27 2 43 6q8 2 14 2q37 0 64.5 -32t27.5 -71q0 -55 -48 -92t-105 -37q-166 0 -166 191q0 199 289 293l-99 102q-68 61 -123 64l-8 -13 q43 -37 43 -84q0 -31 -11 -58.5t-29.5 -49t-43 -34.5t-53.5 -13q-152 0 -152 174q0 84 59.5 134t147.5 50q80 0 201 -76q119 -74 150 -147q123 51 122 176q0 49 -29.5 92t-78.5 43h-819z" />
<glyph horiz-adv-x="1234" d="M-127 1319h1243l117 -115l-219 -2q78 -102 78 -153q0 -104 -119 -189q172 -43 172 -227q0 -104 -62 -193q-61 -88 -122 -102v-528q-23 4 -48.5 20t-54.5 49q-35 37 -62.5 62.5t-50.5 42.5q-84 51 -221 57l-98 145q25 18 76 52t131 84q-78 27 -146.5 70.5t-130.5 105.5 q-49 47 -95 115.5t-83 152.5q-33 84 -63.5 169t-65.5 171q20 -4 40 -12.5t40 -12.5q39 -117 95.5 -221t121.5 -182q86 -102 186.5 -160.5t210.5 -66.5q283 14 283 211q0 47 -23.5 85.5t-64.5 38.5q-4 -2 -12 -2q-6 -2 -13.5 -2t-15.5 -2q33 -39 33 -84q0 -129 -127 -129 q-152 0 -152 158q0 100 94 137q-4 66 -46 114t-101 48l-41 -16q41 -70 41 -95q0 -31 -11.5 -61.5t-29.5 -54t-43 -38t-51 -14.5q-156 0 -156 187q0 86 72 145q70 57 156 58q90 0 180 -58q102 -61 114 -147q53 0 93.5 32.5t40.5 86.5q0 57 -25 100q-33 53 -84 53h-194.5 t-235.5 1t-235.5 1h-194.5zM614 160q141 -37 240 -142v287q-37 -23 -99.5 -59.5t-140.5 -85.5z" />
<glyph horiz-adv-x="1095" d="M-135 1319h1147l116 -115h-286q72 -137 71 -221q-2 -111 -131 -203q111 -39 161 -109.5t50 -205.5q0 -193 -336 -344q129 -80 264.5 -189.5t266.5 -236.5l14 -94q-328 322 -934 510l-114 270q131 -88 335 -88q135 0 240 61q61 37 92 89.5t31 127.5q0 86 -102 105 q-18 0 -39 -7t-45 -18q0 -88 -70 -159q-68 -68 -156 -68q-27 0 -54.5 8t-45.5 23q-49 37 -49 90q0 111 115 184q98 66 225 66q-23 33 -55.5 64.5t-70.5 57t-80 41t-85 15.5q6 0 13 -12.5t13.5 -27.5t10.5 -28.5t4 -15.5q0 -31 -11.5 -58.5t-29.5 -50t-43 -36t-51 -13.5 q-154 0 -154 174q0 88 58.5 136.5t148.5 48.5q49 0 104.5 -13.5t104.5 -39t90 -62.5t64 -82q121 51 120 176q0 49 -28.5 92t-75.5 43h-694z" />
</font>
</defs>
</svg>
